<?xml version="1.0" standalone="no"?>
<!DOCTYPE svg PUBLIC "-//W3C//DTD SVG 1.1//EN" "http://www.w3.org/Graphics/SVG/1.1/DTD/svg11.dtd" >
<svg xmlns="http://www.w3.org/2000/svg" xmlns:xlink="http://www.w3.org/1999/xlink" version="1.1">
<metadata>
Created by FontForge 20190801 at Mon Jul 26 12:50:47 2021
 By www-data
Copyright (c) 2018-2021 by Avraham Cornfeld. All rights reserved.
</metadata>
<defs>
<font id="ploniboldaaa" horiz-adv-x="0" >
  <font-face 
    font-family="ploniboldaaa"
    font-weight="700"
    font-stretch="normal"
    units-per-em="1158"
    panose-1="0 0 8 0 0 0 0 0 0 0"
    ascent="926"
    descent="-232"
    x-height="550"
    cap-height="700"
    bbox="-709 -337 1656 1140"
    underline-thickness="73"
    underline-position="-173"
    unicode-range="U+0020-1F10B"
  />
<missing-glyph horiz-adv-x="570" 
d="M66 700h437q33 0 33 -33v-635q0 -32 -33 -32h-437q-32 0 -32 32v635q0 33 32 33zM355 590h-141l71 -141zM154 186l74 164l-74 164v-328zM416 186v328l-75 -164zM214 110h141l-70 142z" />
    <glyph glyph-name="f_f.liga" unicode="ff" horiz-adv-x="711" 
d="M630 640q-26 0 -42 -19.5t-16 -55.5v-15h108v-125h-108v-425h-160v425h-160v-425h-160v425h-56v125h56v45q0 70 31 116.5t78.5 62t102.5 8t104 -38.5l-47 -112q-28 15 -52 16.5t-40.5 -15t-16.5 -52.5v-30h160v47q0 87 53 134t130 47q79 0 166 -58l-60 -106
q-45 26 -71 26z" />
    <glyph glyph-name="f_f_i.liga" unicode="ffi" horiz-adv-x="953" 
d="M892 550v-550h-160v425h-160v-425h-160v425h-160v-425h-160v425h-56v125h56v45q0 70 31 116.5t78.5 62t102.5 8t104 -38.5l-47 -112q-28 15 -52 16.5t-40.5 -15t-16.5 -52.5v-30h160v7q0 76 27.5 134.5t74.5 89t105 37.5t124 -18t126 -78l-85 -105q-87 70 -149.5 51.5
t-62.5 -111.5v-7h320z" />
    <glyph glyph-name="f_f_l.liga" unicode="ffl" horiz-adv-x="967" 
d="M412 550v17q0 127 72 196.5t186.5 66t235.5 -79.5v-750h-160v663q-80 30 -127 0.5t-47 -110.5v-3h103v-125h-103v-425h-160v425h-160v-425h-160v425h-56v125h56v45q0 70 31 116.5t78.5 62t102.5 8t104 -38.5l-47 -112q-28 15 -52 16.5t-40.5 -15t-16.5 -52.5v-30h160z
" />
    <glyph glyph-name="f_i.liga" unicode="fi" horiz-adv-x="633" 
d="M572 550v-550h-160v425h-160v-425h-160v425h-56v125h56v7q0 76 27.5 134.5t74.5 89t105 37.5t124 -18t126 -78l-85 -105q-87 70 -149.5 51.5t-62.5 -111.5v-7h320z" />
    <glyph glyph-name="f_l.liga" unicode="fl" horiz-adv-x="647" 
d="M92 550v17q0 127 72 196.5t186.5 66t235.5 -79.5v-750h-160v663q-80 30 -127 0.5t-47 -110.5v-3h103v-125h-103v-425h-160v425h-56v125h56z" />
    <glyph glyph-name="uni05D005D005D0.liga" unicode="&#x5d0;&#x5d0;&#x5d0;" horiz-adv-x="1390" 
d="M40 593v7h188l436 -593v-7h-188l-202 274q-70 -61 -63 -274h-170q-4 165 32.5 255.5t116.5 133.5zM380 593v7h188l436 -593v-7h-188zM1194 211l150 -204v-7h-188l-436 593v7h188l202 -274q70 61 63 274h170q4 -165 -32.5 -255.5t-116.5 -133.5z" />
    <glyph glyph-name=".notdef" horiz-adv-x="570" 
d="M66 700h437q33 0 33 -33v-635q0 -32 -33 -32h-437q-32 0 -32 32v635q0 33 32 33zM355 590h-141l71 -141zM154 186l74 164l-74 164v-328zM416 186v328l-75 -164zM214 110h141l-70 142z" />
    <glyph glyph-name=".null" 
 />
    <glyph glyph-name="nonmarkingreturn" horiz-adv-x="386" 
 />
    <glyph glyph-name="space" unicode=" " horiz-adv-x="300" 
 />
    <glyph glyph-name="exclam" unicode="!" horiz-adv-x="374" 
d="M284 700l-21 -438h-152l-21 438h194zM187 -7q-45 0 -76.5 31.5t-31.5 76.5t31.5 76.5t76.5 31.5t76.5 -31.5t31.5 -76.5t-31.5 -76.5t-76.5 -31.5z" />
    <glyph glyph-name="quotedbl" unicode="&#x22;" horiz-adv-x="474" 
d="M38 405l46 295h164l-82 -295h-128zM242 405l46 295h164l-82 -295h-128z" />
    <glyph glyph-name="numbersign" unicode="#" horiz-adv-x="847" 
d="M827 555l-31 -135h-129l-28 -121h130l-31 -135h-130l-37 -164h-166l37 164h-127l-37 -164h-166l37 164h-129l31 135h129l28 121h-130l31 135h130l33 145h166l-33 -145h127l33 145h166l-33 -145h129zM346 299h127l28 121h-127z" />
    <glyph glyph-name="dollar" unicode="$" horiz-adv-x="596" 
d="M550 212q0 -81 -54 -130t-134 -63v-79h-121v78q-75 11 -130 54t-81 113l129 73q56 -107 150 -107q84 0 84 55q0 28 -28 49t-101 45q-38 12 -62.5 21.5t-57.5 27.5t-52.5 38t-34 51.5t-14.5 69.5q0 81 56 127.5t142 57.5v67h121v-73q124 -29 178 -143l-135 -65
q-41 78 -125 78q-79 0 -79 -50q0 -26 27.5 -45t111.5 -43q106 -32 158 -76t52 -131z" />
    <glyph glyph-name="percent" unicode="%" horiz-adv-x="894" 
d="M237 291q-88 0 -139.5 57t-51.5 151t51.5 151t139.5 57q86 0 137 -57t51 -151t-51 -151t-137 -57zM469 442v13l167 245h161v-5l-187 -253h-141zM237 394q34 0 52 28.5t18 76.5q0 49 -18 77.5t-52 28.5q-35 0 -53.5 -28.5t-18.5 -77.5q0 -48 18.5 -76.5t53.5 -28.5z
M660 -8q-88 0 -139.5 57t-51.5 151t51.5 151t139.5 57q86 0 137 -57t51 -151t-51 -151t-137 -57zM660 95q34 0 52 28.5t18 76.5q0 49 -18 77.5t-52 28.5q-35 0 -53.5 -28.5t-18.5 -77.5q0 -48 18.5 -76.5t53.5 -28.5zM433 258v-13l-167 -245h-161v5l187 253h141z" />
    <glyph glyph-name="ampersand" unicode="&#x26;" horiz-adv-x="676" 
d="M560 128l97 -118v-10h-183l-25 30q-77 -39 -191 -39q-111 -1 -174 53.5t-63 132.5q0 73 31.5 125.5t96.5 98.5q-47 84 -31.5 152.5t79.5 112t150 43.5q198 0 243 -182l-140 -44q-30 82 -98 82q-52 0 -68.5 -38.5t23.5 -89.5l154 -188q30 48 48 119l141 -47
q-35 -115 -90 -193zM272 133q42 0 80 16l-112 137q-50 -33 -50 -86q0 -30 22.5 -48.5t59.5 -18.5z" />
    <glyph glyph-name="quotesingle" unicode="'" horiz-adv-x="274" 
d="M38 405l47 295h167l-84 -295h-130z" />
    <glyph glyph-name="parenleft" unicode="(" horiz-adv-x="378" 
d="M221 700h136q-48 -56 -87.5 -170t-39.5 -230t39.5 -230t87.5 -170h-136q-73 70 -113.5 174.5t-40.5 225.5t40.5 225.5t113.5 174.5z" />
    <glyph glyph-name="parenright" unicode=")" horiz-adv-x="378" 
d="M21 700h136q73 -70 113.5 -174.5t40.5 -225.5t-40.5 -225.5t-113.5 -174.5h-136q48 56 87.5 170t39.5 230t-39.5 230t-87.5 170z" />
    <glyph glyph-name="asterisk" unicode="*" horiz-adv-x="559" 
d="M464 616l42 -131l-124 -35l80 -100l-111 -81l-71 108l-72 -108l-111 81l80 100l-124 35l42 131l122 -45l-6 129h138l-6 -129z" />
    <glyph glyph-name="plus" unicode="+" horiz-adv-x="578" 
d="M359 370h160v-140h-160v-160h-140v160h-160v140h160v160h140v-160z" />
    <glyph glyph-name="comma" unicode="," horiz-adv-x="264" 
d="M18 -137l47 283h164l-85 -283h-126z" />
    <glyph glyph-name="hyphen" unicode="-" horiz-adv-x="493" 
d="M434 230h-375v140h375v-140z" />
    <glyph glyph-name="period" unicode="." horiz-adv-x="298" 
d="M149 -7q-45 0 -76.5 31.5t-31.5 76.5t31.5 76.5t76.5 31.5t76.5 -31.5t31.5 -76.5t-31.5 -76.5t-76.5 -31.5z" />
    <glyph glyph-name="slash" unicode="/" horiz-adv-x="509" 
d="M334 700h164v-7l-323 -693h-164v7z" />
    <glyph glyph-name="zero" unicode="0" horiz-adv-x="666" 
d="M334 -11q-137 0 -217 97t-80 264t80 264t217 97t216 -97t79 -264t-79 -264t-216 -97zM334 143q58 0 91.5 55.5t33.5 151.5t-33.5 151.5t-91.5 55.5q-59 0 -93 -55.5t-34 -151.5t34 -151.5t93 -55.5z" />
    <glyph glyph-name="one" unicode="1" horiz-adv-x="450" 
d="M7 455l251 245h108v-700h-170v437l-90 -87z" />
    <glyph glyph-name="two" unicode="2" horiz-adv-x="575" 
d="M187 456l-167 25q41 230 265 230q113 0 179 -56.5t66 -156.5q0 -101 -140 -281l-56 -72h209v-145h-518v24l197 245q79 99 107.5 148.5t28.5 83.5q0 28 -19 44.5t-57 16.5t-63.5 -26.5t-31.5 -79.5z" />
    <glyph glyph-name="three" unicode="3" horiz-adv-x="573" 
d="M436 378q50 -16 79.5 -63.5t29.5 -115.5q0 -92 -71.5 -151t-196.5 -59q-102 0 -174 37.5t-100 87.5l120 90q61 -70 146 -70q49 0 77.5 21t28.5 60q0 85 -122 85h-82v139h62q100 0 100 67q0 60 -80 60q-70 0 -128 -63l-104 89q35 54 97.5 86.5t146.5 32.5q110 0 174 -53.5
t64 -136.5q0 -98 -67 -143z" />
    <glyph glyph-name="four" unicode="4" horiz-adv-x="595" 
d="M496 255h61v-145h-61v-110h-170v110h-312v136l343 454h139v-445zM329 438h-1l-134 -183h135v183z" />
    <glyph glyph-name="five" unicode="5" horiz-adv-x="540" 
d="M270 471q113 0 173.5 -67t60.5 -175q0 -101 -79 -170.5t-200 -69.5t-199 43l50 142q66 -34 129 -34q54 0 88 25.5t34 71.5q0 51 -36 77.5t-97 26.5q-65 0 -140 -19l-5 2l22 376h408v-145h-249l-5 -87q24 3 45 3z" />
    <glyph glyph-name="six" unicode="6" horiz-adv-x="586" 
d="M344 458q95 0 156.5 -63t61.5 -160q0 -107 -76.5 -176.5t-194.5 -69.5t-194.5 67.5t-76.5 168.5q0 58 20 104.5t70 120.5l170 250h204v-8l-173 -236q11 2 33 2zM291 140q43 0 71 27t28 68t-28 68t-71 27t-71 -27t-28 -68t28 -68t71 -27z" />
    <glyph glyph-name="seven" unicode="7" horiz-adv-x="517" 
d="M20 555v145h486v-18l-242 -682h-179l198 555h-263z" />
    <glyph glyph-name="eight" unicode="8" horiz-adv-x="598" 
d="M468 383q51 -29 79.5 -75t28.5 -102q0 -95 -78 -156.5t-199 -61.5t-199 61.5t-78 156.5q0 114 108 177q-72 53 -72 136t68 137t173 54t172.5 -54t67.5 -137q0 -84 -71 -136zM299 568q-31 0 -50.5 -18t-19.5 -46t19.5 -46t50.5 -18t50.5 18t19.5 46t-19.5 46t-50.5 18z
M299 138q45 0 74.5 24.5t29.5 61.5q0 38 -29.5 63t-74.5 25t-74.5 -25t-29.5 -63q0 -37 29.5 -61.5t74.5 -24.5z" />
    <glyph glyph-name="nine" unicode="9" horiz-adv-x="594" 
d="M297 711q118 0 194.5 -67.5t76.5 -168.5q0 -58 -20 -104.5t-70 -120.5l-170 -250h-204v8l173 236q-11 -2 -33 -2q-95 0 -156.5 63t-61.5 160q0 107 76.5 176.5t194.5 69.5zM297 370q43 0 71 27t28 68t-28 68t-71 27t-71 -27t-28 -68t28 -68t71 -27z" />
    <glyph glyph-name="colon" unicode=":" horiz-adv-x="338" 
d="M169 342q-45 0 -76.5 31.5t-31.5 76.5t31.5 76.5t76.5 31.5t76.5 -31.5t31.5 -76.5t-31.5 -76.5t-76.5 -31.5zM169 -7q-45 0 -76.5 31.5t-31.5 76.5t31.5 76.5t76.5 31.5t76.5 -31.5t31.5 -76.5t-31.5 -76.5t-76.5 -31.5z" />
    <glyph glyph-name="semicolon" unicode=";" horiz-adv-x="340" 
d="M171 342q-45 0 -76.5 31.5t-31.5 76.5t31.5 76.5t76.5 31.5t76.5 -31.5t31.5 -76.5t-31.5 -76.5t-76.5 -31.5zM51 -137l47 283h164l-85 -283h-126z" />
    <glyph glyph-name="less" unicode="&#x3c;" horiz-adv-x="557" 
d="M475 46l-411 185v138l411 186v-148l-259 -107l259 -106v-148z" />
    <glyph glyph-name="equal" unicode="=" horiz-adv-x="582" 
d="M513 352h-444v130h444v-130zM513 119h-444v130h444v-130z" />
    <glyph glyph-name="greater" unicode="&#x3e;" horiz-adv-x="557" 
d="M493 369v-138l-411 -185v148l259 106l-259 107v148z" />
    <glyph glyph-name="question" unicode="?" horiz-adv-x="564" 
d="M336 237h-154q-2 47 14 83.5t40.5 59t48.5 42t41.5 42.5t17.5 49q0 53 -69 53q-65 0 -92 -97l-151 37q18 100 87.5 153.5t175.5 51.5q103 -2 160 -47.5t57 -131.5q0 -47 -18.5 -85.5t-44.5 -64t-52 -47.5t-44 -47t-17 -51zM259 -6q-41 0 -69.5 28.5t-28.5 69.5
q0 40 28.5 69t69.5 29t69.5 -28.5t28.5 -69.5t-28.5 -69.5t-69.5 -28.5z" />
    <glyph glyph-name="at" unicode="@" horiz-adv-x="957" 
d="M478 711q182 0 307.5 -125.5t125.5 -306.5q0 -281 -193 -281q-109 0 -137 96q-49 -44 -130 -44q-77 0 -126.5 42.5t-49.5 108.5q0 65 49.5 107.5t126.5 42.5q54 0 95 -23q-10 66 -91 66q-63 0 -122 -34l-42 92q83 50 186 50q97 0 147.5 -45.5t50.5 -147.5v-86
q0 -56 12 -78t35 -22q28 0 40 34.5t12 121.5q0 124 -87 211.5t-209 87.5t-208.5 -87.5t-86.5 -211.5q0 -138 103 -227.5t246 -67.5l19 -132q-110 -12 -205.5 17.5t-160.5 89.5t-102 143.5t-37 176.5q0 181 125 306.5t307 125.5zM477 146q35 0 56 15.5t20 40.5t-22 40.5
t-54 15.5q-34 0 -55 -15.5t-21 -40.5t21 -40.5t55 -15.5z" />
    <glyph glyph-name="A" unicode="A" horiz-adv-x="698" 
d="M287 700h124l294 -692v-8h-175l-42 109h-278l-42 -109h-175v8zM349 469l-87 -225h174z" />
    <glyph glyph-name="B" unicode="B" horiz-adv-x="669" 
d="M552 367q41 -21 64 -64.5t23 -99.5q0 -99 -58 -151t-163 -52h-342v700h327q100 0 156.5 -52.5t56.5 -146.5q0 -93 -64 -134zM378 563h-138v-138h138q80 0 80 68q0 70 -80 70zM240 137h155q84 0 84 82q0 80 -84 80h-155v-162z" />
    <glyph glyph-name="C" unicode="C" horiz-adv-x="650" 
d="M400 141q42 0 79 15.5t58 39.5l101 -111q-85 -97 -248 -97q-152 0 -253 103t-101 259t101 259t253 103q163 0 248 -97l-101 -111q-21 24 -58 39.5t-79 15.5q-85 0 -142 -59t-57 -150t57 -150t142 -59z" />
    <glyph glyph-name="D" unicode="D" horiz-adv-x="735" 
d="M76 700h248q178 0 276.5 -91.5t98.5 -258.5t-98.5 -258.5t-276.5 -91.5h-248v700zM246 145h86q93 0 145 53.5t52 151.5t-52 151.5t-145 53.5h-86v-410z" />
    <glyph glyph-name="E" unicode="E" horiz-adv-x="642" 
d="M577 700v-145h-331v-129h271v-139h-271v-142h331v-145h-501v700h501z" />
    <glyph glyph-name="F" unicode="F" horiz-adv-x="593" 
d="M547 700v-145h-301v-138h249v-139h-249v-278h-170v700h471z" />
    <glyph glyph-name="G" unicode="G" horiz-adv-x="778" 
d="M413 419h325q23 -188 -74 -309.5t-265 -121.5q-158 0 -260.5 102.5t-102.5 259.5t102.5 259t260.5 102q76 0 149.5 -34.5t119.5 -91.5l-112 -99q-28 32 -71 52t-83 20q-84 0 -138.5 -58t-54.5 -150t54.5 -148t138.5 -56q68 0 117 38.5t60 101.5h-166v133z" />
    <glyph glyph-name="H" unicode="H" horiz-adv-x="770" 
d="M524 439v261h170v-700h-170v294h-278v-294h-170v700h170v-261h278z" />
    <glyph glyph-name="I" unicode="I" horiz-adv-x="322" 
d="M76 0v700h170v-700h-170z" />
    <glyph glyph-name="J" unicode="J" horiz-adv-x="532" 
d="M-12 146l152 60q18 -66 80 -66q31 0 50.5 19.5t19.5 60.5v480h170v-480q0 -110 -61.5 -170.5t-170.5 -60.5q-89 0 -151.5 39.5t-88.5 117.5z" />
    <glyph glyph-name="K" unicode="K" horiz-adv-x="697" 
d="M682 695l-288 -324l300 -366v-5h-206l-242 300v-300h-170v700h170v-266l228 266h208v-5z" />
    <glyph glyph-name="L" unicode="L" horiz-adv-x="569" 
d="M246 700v-555h290v-145h-460v700h170z" />
    <glyph glyph-name="M" unicode="M" horiz-adv-x="920" 
d="M460 354l236 346h148v-700h-164v400l-200 -286h-40l-200 286v-400h-164v700h148z" />
    <glyph glyph-name="N" unicode="N" horiz-adv-x="785" 
d="M709 700v-700h-123l-343 400v-400h-167v700h123l343 -400v400h167z" />
    <glyph glyph-name="O" unicode="O" horiz-adv-x="796" 
d="M398 -12q-154 0 -258 103.5t-104 258.5t104 258.5t258 103.5t258 -103.5t104 -258.5t-104 -258.5t-258 -103.5zM398 148q82 0 137 57.5t55 144.5t-55 144.5t-137 57.5t-137 -57.5t-55 -144.5t55 -144.5t137 -57.5z" />
    <glyph glyph-name="P" unicode="P" horiz-adv-x="675" 
d="M76 700h308q119 0 187 -68t68 -181q0 -119 -67 -184.5t-188 -65.5h-138v-201h-170v700zM246 346h116q51 0 79 27t28 78q0 45 -29 74.5t-78 29.5h-116v-209z" />
    <glyph glyph-name="Q" unicode="Q" horiz-adv-x="800" 
d="M669 115l92 -107v-8h-196l-22 26q-67 -31 -154 -31q-148 0 -250.5 101t-102.5 254q0 155 104 258.5t258 103.5t258 -103.5t104 -258.5q0 -139 -91 -235zM398 148q19 0 37 3l-147 171v8h196l77 -90q29 47 29 110q0 87 -55 144.5t-137 57.5t-137 -57.5t-55 -144.5
t55 -144.5t137 -57.5z" />
    <glyph glyph-name="R" unicode="R" horiz-adv-x="685" 
d="M511 264l145 -256v-8h-180l-130 245h-100v-245h-170v700h324q113 0 177 -60.5t64 -166.5q0 -77 -33.5 -130.5t-96.5 -78.5zM378 555h-132v-165h132q44 0 68.5 22.5t24.5 60.5q0 37 -24.5 59.5t-68.5 22.5z" />
    <glyph glyph-name="S" unicode="S" horiz-adv-x="628" 
d="M571 552l-143 -69q-44 83 -133 83q-84 0 -84 -53q0 -28 29.5 -47.5t118.5 -46.5q54 -16 91 -32.5t69 -41.5t47.5 -61t15.5 -84q0 -54 -24 -96t-63 -66.5t-84.5 -37t-94.5 -12.5q-102 0 -178 47t-108 136l137 77q59 -113 159 -113q89 0 89 58q0 31 -30 53t-107 47
q-40 13 -66 23t-61 29t-56 40.5t-36 55t-15 73.5q0 98 74.5 148t182.5 50q100 0 168 -44t102 -116z" />
    <glyph glyph-name="T" unicode="T" horiz-adv-x="618" 
d="M30 700h558v-145h-194v-555h-170v555h-194v145z" />
    <glyph glyph-name="U" unicode="U" horiz-adv-x="760" 
d="M519 292v408h170v-419q0 -136 -82.5 -214.5t-226.5 -78.5t-225 78.5t-82 214.5l-2 419h170v-408q0 -69 36.5 -107.5t102.5 -38.5t102.5 38.5t36.5 107.5z" />
    <glyph glyph-name="V" unicode="V" horiz-adv-x="686" 
d="M405 0h-124l-273 691v9h184l151 -414l151 414h184v-9z" />
    <glyph glyph-name="W" unicode="W" horiz-adv-x="1022" 
d="M831 700h183v-10l-241 -690h-119l-143 419l-143 -419h-119l-241 690v10h183l126 -388l125 388h138l125 -388z" />
    <glyph glyph-name="X" unicode="X" horiz-adv-x="713" 
d="M710 6v-6h-196l-157 246l-158 -246h-196l2 6l240 356l-226 332v6h196l142 -222l141 222h196v-6l-226 -332z" />
    <glyph glyph-name="Y" unicode="Y" horiz-adv-x="664" 
d="M331 449l140 251h191v-6l-246 -410v-284h-170v284l-244 410v6h191z" />
    <glyph glyph-name="Z" unicode="Z" horiz-adv-x="624" 
d="M45 700h539v-10l-301 -545h301v-145h-561v10l301 545h-279v145z" />
    <glyph glyph-name="bracketleft" unicode="[" horiz-adv-x="397" 
d="M86 770h282v-130h-122v-680h122v-130h-282v940z" />
    <glyph glyph-name="backslash" unicode="\" horiz-adv-x="509" 
d="M11 693v7h164l323 -693v-7h-164z" />
    <glyph glyph-name="bracketright" unicode="]" horiz-adv-x="397" 
d="M29 640v130h282v-940h-282v130h122v680h-122z" />
    <glyph glyph-name="asciicircum" unicode="^" horiz-adv-x="655" 
d="M324 733h6l282 -291l-110 -104l-175 197l-174 -197l-110 103z" />
    <glyph glyph-name="underscore" unicode="_" horiz-adv-x="415" 
d="M15 -181v145h385v-145h-385z" />
    <glyph glyph-name="grave" unicode="`" horiz-adv-x="575" 
d="M115 750h183l98 -150h-136z" />
    <glyph glyph-name="a" unicode="a" horiz-adv-x="589" 
d="M281 561q257 0 257 -244v-317h-163v25q-54 -35 -127 -35q-97 0 -160 53.5t-63 136.5t63 136.5t160 53.5q72 0 126 -35q-8 96 -121 96q-78 0 -155 -44l-52 110q41 25 104.5 44.5t130.5 19.5zM283 105q44 0 71 21.5t27 55.5t-27 55.5t-71 21.5q-43 0 -70.5 -21.5
t-27.5 -55.5t27.5 -55.5t70.5 -21.5z" />
    <glyph glyph-name="b" unicode="b" horiz-adv-x="666" 
d="M384 558q110 0 181.5 -81t71.5 -202t-71.5 -202t-181.5 -81q-105 0 -163 70v-62h-160v750h160v-262q58 70 163 70zM349 132q57 0 92.5 40.5t35.5 102.5t-35.5 102.5t-92.5 40.5q-54 0 -90.5 -41t-36.5 -102t36.5 -102t90.5 -41z" />
    <glyph glyph-name="c" unicode="c" horiz-adv-x="576" 
d="M29 275q0 127 78 206.5t203 79.5q77 0 143.5 -41t95.5 -106l-128 -66q-18 31 -48 50.5t-63 19.5q-56 0 -92 -40t-36 -103t36 -103t92 -40q34 0 63.5 19.5t47.5 51.5l128 -67q-29 -65 -95.5 -106t-143.5 -41q-125 0 -203 79.5t-78 206.5z" />
    <glyph glyph-name="d" unicode="d" horiz-adv-x="666" 
d="M445 488v262h160v-750h-160v62q-58 -70 -163 -70q-110 0 -181.5 81t-71.5 202t71.5 202t181.5 81q105 0 163 -70zM317 132q54 0 90.5 41t36.5 102t-36.5 102t-90.5 41q-57 0 -92.5 -40.5t-35.5 -102.5t35.5 -102.5t92.5 -40.5z" />
    <glyph glyph-name="e" unicode="e" horiz-adv-x="607" 
d="M306 560q135 0 211 -104.5t58 -241.5h-389q15 -38 46.5 -60t72.5 -22q64 0 103 53l122 -84q-81 -111 -224 -111q-120 0 -198.5 81.5t-78.5 203.5q0 123 78.5 204t198.5 81zM305 416q-45 0 -77.5 -24.5t-44.5 -67.5h239q-10 40 -40.5 66t-76.5 26z" />
    <glyph glyph-name="f" unicode="f" horiz-adv-x="391" 
d="M310 640q-26 0 -42 -19.5t-16 -55.5v-15h108v-125h-108v-425h-160v425h-56v125h56v47q0 87 53 134t130 47q79 0 166 -58l-60 -106q-45 26 -71 26z" />
    <glyph glyph-name="g" unicode="g" horiz-adv-x="607" 
d="M601 557v-145q-55 0 -93 -11q8 -30 8 -61q0 -95 -67.5 -157t-171.5 -62q-33 0 -67 8q-13 -13 -13 -26q0 -26 64 -26h101q204 0 204 -167q0 -86 -66 -135t-193 -49q-179 0 -306 72l64 125q111 -53 242 -53q99 0 99 35q0 18 -15 25t-56 7h-107q-93 0 -145.5 35.5
t-52.5 96.5q0 73 69 120q-61 59 -61 151q0 96 67.5 158t171.5 62q95 0 160 -52q48 49 164 49zM277 258q37 0 60.5 23t23.5 59t-23.5 59t-60.5 23t-60.5 -23t-23.5 -59t23.5 -59t60.5 -23z" />
    <glyph glyph-name="h" unicode="h" horiz-adv-x="634" 
d="M386 555q96 0 146.5 -63.5t50.5 -182.5v-309h-160v309q0 51 -28 81.5t-73 30.5t-73 -30.5t-28 -81.5v-309h-160v750h160v-267q60 72 165 72z" />
    <glyph glyph-name="i" unicode="i" horiz-adv-x="282" 
d="M141 604q-41 0 -68.5 28t-27.5 68t27.5 68t68.5 28t68.5 -28t27.5 -68t-27.5 -68t-68.5 -28zM221 0h-160v550h160v-550z" />
    <glyph glyph-name="j" unicode="j" horiz-adv-x="268" 
d="M127 604q-41 0 -68.5 28t-27.5 68t28 67.5t68 27.5t68 -27.5t28 -67.5t-27.5 -68t-68.5 -28zM-119 -208l58 117q35 -15 60 -15q48 0 48 65v591h160v-617q0 -92 -49.5 -139.5t-124.5 -47.5q-73 0 -152 46z" />
    <glyph glyph-name="k" unicode="k" horiz-adv-x="580" 
d="M582 546l-207 -245l211 -297v-4h-190l-175 254v-254h-160v750h160v-405l165 205h196v-4z" />
    <glyph glyph-name="l" unicode="l" horiz-adv-x="282" 
d="M221 0h-160v750h160v-750z" />
    <glyph glyph-name="m" unicode="m" horiz-adv-x="934" 
d="M690 560q87 0 139 -53.5t52 -149.5v-357h-160v336q0 40 -23 65.5t-60 25.5q-39 0 -63 -25t-24 -66v-336h-160v336q0 40 -23 65.5t-60 25.5q-39 0 -63 -25t-24 -66v-336h-160v550h160v-52q53 62 145 62q107 0 151 -85q55 85 173 85z" />
    <glyph glyph-name="n" unicode="n" horiz-adv-x="634" 
d="M383 560q97 0 148.5 -60t51.5 -176v-324h-160v314q0 50 -28 81t-73 31t-73 -31t-28 -81v-314h-160v550h160v-60q61 70 162 70z" />
    <glyph glyph-name="o" unicode="o" horiz-adv-x="622" 
d="M311 -13q-123 0 -202.5 81t-79.5 207t79.5 207t202.5 81t202.5 -81t79.5 -207t-79.5 -207t-202.5 -81zM311 131q54 0 90.5 41t36.5 103t-36.5 103t-90.5 41t-90.5 -41t-36.5 -103t36.5 -103t90.5 -41z" />
    <glyph glyph-name="p" unicode="p" horiz-adv-x="666" 
d="M384 558q110 0 181.5 -81t71.5 -202t-71.5 -202t-181.5 -81q-105 0 -163 70v-262h-160v750h160v-62q58 70 163 70zM349 132q57 0 92.5 40.5t35.5 102.5t-35.5 102.5t-92.5 40.5q-54 0 -90.5 -41t-36.5 -102t36.5 -102t90.5 -41z" />
    <glyph glyph-name="q" unicode="q" horiz-adv-x="666" 
d="M445 488v62h160v-750h-160v262q-58 -70 -163 -70q-110 0 -181.5 81t-71.5 202t71.5 202t181.5 81q105 0 163 -70zM317 132q54 0 90.5 41t36.5 102t-36.5 102t-90.5 41q-57 0 -92.5 -40.5t-35.5 -102.5t35.5 -102.5t92.5 -40.5z" />
    <glyph glyph-name="r" unicode="r" horiz-adv-x="432" 
d="M210 457l4 -1q22 53 74 79t117 20v-151q-76 9 -130 -32.5t-54 -138.5v-233h-160v550h135z" />
    <glyph glyph-name="s" unicode="s" horiz-adv-x="508" 
d="M475 435l-131 -57q-14 24 -40 40.5t-57 16.5q-63 0 -63 -35q0 -20 21 -32.5t86 -29.5q95 -24 142.5 -63.5t47.5 -116.5q0 -84 -66.5 -128.5t-157.5 -44.5q-192 0 -245 140l131 66q39 -75 116 -75q64 0 64 45q0 19 -18.5 29t-68.5 24q-31 9 -55 16.5t-55 23t-51 33
t-34.5 45t-14.5 59.5q1 82 66.5 127.5t159.5 45.5q82 0 140 -35.5t83 -93.5z" />
    <glyph glyph-name="t" unicode="t" horiz-adv-x="385" 
d="M313 140h50v-140h-109q-171 0 -171 169v256h-56v125h56v109l160 30v-139h105v-125h-105v-201q0 -49 14.5 -66.5t55.5 -17.5z" />
    <glyph glyph-name="u" unicode="u" horiz-adv-x="620" 
d="M406 225v325h160l-2 -331q-1 -102 -70.5 -166t-183.5 -64t-185 64t-71 166v331h160v-325q0 -42 26.5 -68t69.5 -26t69.5 26t26.5 68z" />
    <glyph glyph-name="v" unicode="v" horiz-adv-x="546" 
d="M273 236l99 314h166v-5l-198 -545h-134l-198 545v5h166z" />
    <glyph glyph-name="w" unicode="w" horiz-adv-x="826" 
d="M558 263l92 287h167v-5l-197 -545h-95l-112 274l-113 -274h-94l-197 545v5h167l92 -287l109 287h72z" />
    <glyph glyph-name="x" unicode="x" horiz-adv-x="573" 
d="M579 5v-5h-181l-111 171l-112 -171h-181v5l191 282l-169 258v5h180l91 -157l90 157h180v-5l-168 -258z" />
    <glyph glyph-name="y" unicode="y" horiz-adv-x="544" 
d="M275 239l95 311h166v-6l-200 -607q-29 -89 -71 -132.5t-97.5 -47.5t-128.5 19l36 129q45 -14 73.5 -2.5t40.5 53.5l13 44l-196 544v6h171z" />
    <glyph glyph-name="z" unicode="z" horiz-adv-x="498" 
d="M33 550h440v-10l-220 -405h223v-135h-454v10l220 405h-209v135z" />
    <glyph glyph-name="braceleft" unicode="{" horiz-adv-x="411" 
d="M280 210v-105q0 -77 24 -108t83 -38l-15 -120q-130 -2 -196 62.5t-66 204.5v80q0 27 -19.5 38.5t-68.5 16.5v118q48 5 68 17.5t20 37.5v94q0 138 65 196t197 56l15 -120q-61 -7 -84 -31.5t-23 -98.5v-120q0 -71 -63 -90q63 -22 63 -90z" />
    <glyph glyph-name="bar" unicode="|" horiz-adv-x="312" 
d="M76 -200v950h160v-950h-160z" />
    <glyph glyph-name="braceright" unicode="}" horiz-adv-x="411" 
d="M131 105v105q0 68 63 90q-63 19 -63 90v120q0 74 -23 98.5t-84 31.5l15 120q132 2 197 -56t65 -196v-94q0 -25 20 -37.5t68 -17.5v-118q-49 -5 -68.5 -16.5t-19.5 -38.5v-80q0 -140 -66 -204.5t-196 -62.5l-15 120q59 7 83 38t24 108z" />
    <glyph glyph-name="asciitilde" unicode="~" horiz-adv-x="471" 
d="M412 387v-145q-41 -50 -97 -50q-25 0 -47 13t-35.5 28.5t-34 28.5t-42.5 13q-50 0 -97 -55v143q44 52 97 52q32 0 57.5 -20.5t49.5 -41.5t52 -21q53 0 97 55z" />
    <glyph glyph-name="exclamdown" unicode="&#xa1;" horiz-adv-x="374" 
d="M187 558q45 0 76.5 -31.5t31.5 -76.5t-31.5 -76.5t-76.5 -31.5t-76.5 31.5t-31.5 76.5t31.5 76.5t76.5 31.5zM90 -149l21 438h152l21 -438h-194z" />
    <glyph glyph-name="cent" unicode="&#xa2;" horiz-adv-x="586" 
d="M314 216q32 0 60 18.5t45 48.5l120 -63q-21 -47 -64 -81.5t-97 -48.5v-90h-110v85q-99 15 -159 87t-60 179t60 179.5t159 87.5v82h110v-87q54 -14 97 -49t64 -82l-120 -62q-39 66 -105 66q-53 0 -86.5 -38t-33.5 -97t33.5 -97t86.5 -38z" />
    <glyph glyph-name="sterling" unicode="&#xa3;" horiz-adv-x="674" 
d="M568 181l70 -130q-71 -42 -136 -52.5t-147 2.5q-149 20 -263 -10l-39 149q30 7 53.5 37.5t24.5 89.5h-91v125h77l-5 33q-19 131 49 203t208 72q109 0 167.5 -45t84.5 -128l-159 -48q-22 81 -93 81q-49 0 -75 -35t-15 -100l6 -33h153v-125h-140q-2 -75 -34 -118
q47 7 126 -2q61 -7 95.5 0t82.5 34z" />
    <glyph glyph-name="currency" unicode="&#xa4;" horiz-adv-x="646" 
d="M534 350q0 -46 -18 -87l88 -88l-105 -105l-87 88q-43 -19 -89 -19t-89 19l-87 -88l-105 105l88 88q-18 41 -18 87t18 87l-88 88l105 105l87 -88q43 19 89 19t89 -19l87 88l105 -105l-88 -88q18 -41 18 -87zM323 260q37 0 63.5 26t26.5 64t-26.5 64t-63.5 26t-63.5 -26
t-26.5 -64t26.5 -64t63.5 -26z" />
    <glyph glyph-name="yen" unicode="&#xa5;" horiz-adv-x="688" 
d="M483 700h191v-6l-205 -342h108v-98h-149v-39h149v-98h-149v-117h-170v117h-137v98h137v39h-137v98h97l-204 342v6h191l138 -251z" />
    <glyph glyph-name="brokenbar" unicode="&#xa6;" horiz-adv-x="312" 
d="M236 380h-160v370h160v-370zM236 -200h-160v370h160v-370z" />
    <glyph glyph-name="section" unicode="&#xa7;" horiz-adv-x="628" 
d="M298 523l188 -141q45 -34 72 -74.5t33 -83t-17 -85.5t-76 -78q21 -58 5 -110.5t-64.5 -88.5t-107.5 -36q-200 0 -246 167l125 39q32 -78 99 -78q48 0 57 32t-36 67l-188 141q-45 34 -72 74.5t-33 83t17 85.5t76 78q-21 58 -5 110.5t64.5 88.5t107.5 36q200 0 246 -167
l-125 -39q-32 78 -99 78q-48 0 -57 -32t36 -67zM264 264l152 -111q42 37 30 72.5t-82 86.5l-152 111q-42 -37 -30 -72.5t82 -86.5z" />
    <glyph glyph-name="dieresis" unicode="&#xa8;" horiz-adv-x="542" 
d="M164 596q-28 0 -48 20t-20 48t20 48t48 20t48 -20t20 -48t-20 -48t-48 -20zM342 596q-28 0 -48 20t-20 48t20 48t48 20t48 -20t20 -48t-20 -48t-48 -20z" />
    <glyph glyph-name="copyright" unicode="&#xa9;" horiz-adv-x="803" 
d="M401 -5q-149 0 -252 102t-103 252t103 252.5t252 102.5q150 0 253 -102.5t103 -252.5t-103 -252t-253 -102zM401 108q101 0 170 70t69 171q0 102 -69 172t-170 70q-100 0 -169 -70.5t-69 -171.5t69 -171t169 -70zM463 313l92 -52q-18 -40 -58.5 -64t-90.5 -24
q-77 0 -125 49t-48 127t48 127.5t125 49.5q50 0 90.5 -24.5t58.5 -65.5l-92 -55q-22 34 -57 34q-28 0 -45 -19t-17 -49t17 -49t45 -19q37 0 57 34z" />
    <glyph glyph-name="ordfeminine" unicode="&#xaa;" horiz-adv-x="425" 
d="M204 708q190 0 190 -180v-235h-120v19q-38 -26 -94 -26q-72 0 -118.5 39.5t-46.5 100.5q0 62 46 101.5t119 39.5q55 0 93 -26q-6 71 -90 71q-58 0 -114 -33l-39 82q78 47 174 47zM205 371q33 0 53 15.5t20 41.5q0 25 -20 41t-53 16q-31 0 -51.5 -16t-20.5 -41t20 -41
t52 -16zM394 169h-363v78h363v-78z" />
    <glyph glyph-name="guillemotleft" unicode="&#xab;" horiz-adv-x="645" 
d="M13 272v6l265 229l61 -61l-121 -171l121 -171l-61 -61zM278 272v6l265 229l61 -61l-121 -171l121 -171l-61 -61z" />
    <glyph glyph-name="logicalnot" unicode="&#xac;" horiz-adv-x="508" 
d="M59 230v140h390v-257h-155v117h-235z" />
    <glyph glyph-name="uni00AD" unicode="&#xad;" horiz-adv-x="493" 
d="M434 230h-375v140h375v-140z" />
    <glyph glyph-name="registered" unicode="&#xae;" horiz-adv-x="523" 
d="M261 704q91 0 153.5 -62t62.5 -153t-62.5 -153t-153.5 -62q-90 0 -152.5 62t-62.5 153t62.5 153t152.5 62zM261 343q61 0 103 42.5t42 103.5q0 62 -42 104.5t-103 42.5q-60 0 -102 -43t-42 -104t41.5 -103.5t102.5 -42.5zM347 527q0 -45 -36 -60l34 -71h-58l-28 63h-12
v-63h-60v195h90q31 0 50.5 -17.5t19.5 -46.5zM271 542h-24v-36h24q8 0 13.5 5t5.5 13q0 18 -19 18z" />
    <glyph glyph-name="macron" unicode="&#xaf;" horiz-adv-x="496" 
d="M374 610h-278v97h278v-97z" />
    <glyph glyph-name="degree" unicode="&#xb0;" horiz-adv-x="407" 
d="M203 383q-69 0 -115.5 47t-46.5 117q0 69 46.5 115.5t115.5 46.5q70 0 116.5 -46.5t46.5 -115.5q0 -70 -46.5 -117t-116.5 -47zM203 499q21 0 34.5 13.5t13.5 34.5q0 20 -13.5 33t-34.5 13q-20 0 -33.5 -13t-13.5 -33q0 -21 13.5 -34.5t33.5 -13.5z" />
    <glyph glyph-name="plusminus" unicode="&#xb1;" horiz-adv-x="535" 
d="M329 623v-140h141v-124h-141v-140h-123v140h-141v124h141v140h123zM470 55h-405v124h405v-124z" />
    <glyph glyph-name="uni00B2" unicode="&#xb2;" horiz-adv-x="386" 
d="M127 540l-115 20q11 75 59.5 110.5t119.5 35.5q75 0 120.5 -37.5t45.5 -93.5q0 -76 -94 -164l-17 -16h121v-97h-346v19l130 133q53 54 70 77t17 42q0 16 -12 26t-35 10q-55 0 -64 -65z" />
    <glyph glyph-name="uni00B3" unicode="&#xb3;" horiz-adv-x="373" 
d="M284 512q32 -9 52 -36t20 -64q0 -56 -45.5 -88.5t-136.5 -32.5q-62 0 -108 22.5t-64 50.5l80 60q34 -36 100 -36q28 0 44.5 11t16.5 31q0 37 -82 37h-46v82h22q86 0 86 31q0 29 -51 29q-59 0 -94 -43l-69 60q53 80 162 80q82 0 124 -30t42 -80q0 -57 -53 -84z" />
    <glyph glyph-name="acute" unicode="&#xb4;" horiz-adv-x="565" 
d="M114 600l98 150h183l-145 -150h-136z" />
    <glyph glyph-name="uni00B5" unicode="&#xb5;" horiz-adv-x="688" 
d="M583 140h83v-140h-179v19q-42 -24 -101 -24q-105 0 -165 72v-267h-160v750h160v-309q0 -51 28 -81.5t73 -30.5t73 30.5t28 81.5v309h160v-410z" />
    <glyph glyph-name="paragraph" unicode="&#xb6;" horiz-adv-x="678" 
d="M398 -1h-142v318q-92 2 -149 54.5t-57 137.5q0 86 57 138.5t149 52.5h346v-701h-142v570h-62v-570z" />
    <glyph glyph-name="periodcentered" unicode="&#xb7;" horiz-adv-x="334" 
d="M167 198q-45 0 -76.5 31.5t-31.5 76.5t31.5 76.5t76.5 31.5t76.5 -31.5t31.5 -76.5t-31.5 -76.5t-76.5 -31.5z" />
    <glyph glyph-name="cedilla" unicode="&#xb8;" horiz-adv-x="468" 
d="M290 9l-18 -60q29 -6 42 -24.5t13 -39.5q0 -37 -30.5 -61.5t-84.5 -24.5q-62 0 -116 33l29 60q48 -24 77 -24q30 0 30 21q0 24 -50 34l20 94h88v-8z" />
    <glyph glyph-name="uni00B9" unicode="&#xb9;" horiz-adv-x="331" 
d="M253 700v-304h76v-96h-292v96h97v142l-57 -51l-67 72l162 141h81z" />
    <glyph glyph-name="ordmasculine" unicode="&#xba;" horiz-adv-x="452" 
d="M226 283q-91 0 -150 60t-59 154q0 93 59 153t150 60q92 0 150.5 -59.5t58.5 -153.5t-58.5 -154t-150.5 -60zM226 390q40 0 67 30.5t27 76.5t-27 76t-67 30t-67 -30t-27 -76t27 -76.5t67 -30.5zM54 169v78h344v-78h-344z" />
    <glyph glyph-name="guillemotright" unicode="&#xbb;" horiz-adv-x="645" 
d="M102 507l265 -229v-6l-265 -229l-61 61l121 171l-121 171zM367 507l265 -229v-6l-265 -229l-61 61l121 171l-121 171z" />
    <glyph glyph-name="onequarter" unicode="&#xbc;" horiz-adv-x="831" 
d="M256 700h81v-304h76v-96h-292v96h97v142l-57 -51l-67 72zM760 696v-5l-187 -232h-141v13l170 224h158zM740 146h46v-93h-46v-57h-114v57h-211v89l221 254h104v-250zM629 251h-1l-91 -105h92v105zM68 -4v5l187 232h141v-13l-170 -224h-158z" />
    <glyph glyph-name="onehalf" unicode="&#xbd;" horiz-adv-x="835" 
d="M192 398v142l-57 -51l-67 72l162 141h81v-304h76v-96h-292v96h97zM763 700v-5l-187 -232h-141v13l170 224h158zM704 113l-17 -16h121v-97h-346v19l130 133q53 54 70 77t17 42q0 16 -12 26t-35 10q-55 0 -64 -65l-115 20q11 75 59.5 110.5t119.5 35.5q75 0 120.5 -37.5
t45.5 -93.5q0 -76 -94 -164zM71 0v5l187 232h141v-13l-170 -224h-158z" />
    <glyph glyph-name="threequarters" unicode="&#xbe;" horiz-adv-x="889" 
d="M423 412q0 -56 -45.5 -88.5t-136.5 -32.5q-62 0 -108 22.5t-64 50.5l80 60q34 -36 100 -36q28 0 44.5 11t16.5 31q0 37 -82 37h-46v82h22q86 0 86 31q0 29 -51 29q-59 0 -94 -43l-69 60q53 80 162 80q82 0 124 -30t42 -80q0 -57 -53 -84q32 -9 52 -36t20 -64zM822 700v-5
l-187 -232h-141v13l170 224h158zM798 150h46v-93h-46v-57h-114v57h-211v89l221 254h104v-250zM687 255h-1l-91 -105h92v105zM130 0v5l187 232h141v-13l-170 -224h-158z" />
    <glyph glyph-name="questiondown" unicode="&#xbf;" horiz-adv-x="483" 
d="M253 558q41 0 69.5 -28.5t28.5 -69.5q0 -40 -28.5 -69t-69.5 -29t-69.5 28.5t-28.5 69.5t28.5 69.5t69.5 28.5zM176 315h154q2 -47 -14 -83.5t-40.5 -59t-48.5 -42t-41.5 -42.5t-17.5 -49q0 -53 69 -53q65 0 92 97l151 -37q-18 -100 -87.5 -153.5t-175.5 -51.5
q-103 2 -160 47.5t-57 131.5q0 47 18.5 85.5t44.5 64t52 47.5t44 47t17 51z" />
    <glyph glyph-name="Agrave" unicode="&#xc0;" horiz-adv-x="698" 
d="M335 900l98 -150h-136l-145 150h183zM287 700h124l294 -692v-8h-175l-42 109h-278l-42 -109h-175v8zM349 469l-87 -225h174z" />
    <glyph glyph-name="Aacute" unicode="&#xc1;" horiz-adv-x="698" 
d="M369 900h183l-145 -150h-136zM287 700h124l294 -692v-8h-175l-42 109h-278l-42 -109h-175v8zM349 469l-87 -225h174z" />
    <glyph glyph-name="Acircumflex" unicode="&#xc2;" horiz-adv-x="698" 
d="M422 734l-73 73l-73 -73l-76 72l149 129l149 -129zM287 700h124l294 -692v-8h-175l-42 109h-278l-42 -109h-175v8zM349 469l-87 -225h174z" />
    <glyph glyph-name="Atilde" unicode="&#xc3;" horiz-adv-x="698" 
d="M300 796q-32 0 -57 -34l-52 58q53 68 113 68q21 0 36.5 -9t23 -19.5t18 -19.5t22.5 -9q28 0 55 33l52 -58q-19 -30 -49 -48.5t-61 -18.5q-27 0 -44 14.5t-29 28.5t-28 14zM287 700h124l294 -692v-8h-175l-42 109h-278l-42 -109h-175v8zM349 469l-87 -225h174z" />
    <glyph glyph-name="Adieresis" unicode="&#xc4;" horiz-adv-x="698" 
d="M260 746q-28 0 -48 20t-20 48t20 48t48 20t48 -20t20 -48t-20 -48t-48 -20zM438 746q-28 0 -48 20t-20 48t20 48t48 20t48 -20t20 -48t-20 -48t-48 -20zM287 700h124l294 -692v-8h-175l-42 109h-278l-42 -109h-175v8zM349 469l-87 -225h174z" />
    <glyph glyph-name="Aring" unicode="&#xc5;" horiz-adv-x="698" 
d="M349 727q-52 0 -86.5 34t-34.5 84q0 51 34.5 85t86.5 34t86.5 -34t34.5 -85q0 -50 -34.5 -84t-86.5 -34zM349 898q-21 0 -35.5 -15.5t-14.5 -37.5t14.5 -37.5t35.5 -15.5t35.5 15.5t14.5 37.5t-14.5 37.5t-35.5 15.5zM287 700h124l294 -692v-8h-175l-42 109h-278
l-42 -109h-175v8zM349 469l-87 -225h174z" />
    <glyph glyph-name="AE" unicode="&#xc6;" horiz-adv-x="1072" 
d="M1007 700v-145h-331v-129h271v-139h-271v-142h331v-145h-501v109h-273l-77 -109h-193v9l506 691h538zM506 493l-177 -249h177v249z" />
    <glyph glyph-name="Ccedilla" unicode="&#xc7;" horiz-adv-x="650" 
d="M400 141q42 0 79 15.5t58 39.5l101 -111q-72 -83 -204 -95l-16 -52q29 -6 42 -24.5t13 -39.5q0 -38 -30.5 -62t-84.5 -24q-62 0 -116 33l29 60q48 -24 77 -24q30 0 30 21q0 24 -50 34l17 79q-135 16 -222 116t-87 243q0 156 101 259t253 103q163 0 248 -97l-101 -111
q-21 24 -58 39.5t-79 15.5q-85 0 -142 -59t-57 -150t57 -150t142 -59z" />
    <glyph glyph-name="Egrave" unicode="&#xc8;" horiz-adv-x="642" 
d="M143 900h183l98 -150h-136zM577 700v-145h-331v-129h271v-139h-271v-142h331v-145h-501v700h501z" />
    <glyph glyph-name="Eacute" unicode="&#xc9;" horiz-adv-x="642" 
d="M262 750l98 150h183l-145 -150h-136zM577 700v-145h-331v-129h271v-139h-271v-142h331v-145h-501v700h501z" />
    <glyph glyph-name="Ecircumflex" unicode="&#xca;" horiz-adv-x="642" 
d="M191 806l149 129l149 -129l-76 -72l-73 73l-73 -73zM577 700v-145h-331v-129h271v-139h-271v-142h331v-145h-501v700h501z" />
    <glyph glyph-name="Edieresis" unicode="&#xcb;" horiz-adv-x="642" 
d="M251 746q-29 0 -48.5 20t-19.5 48t19.5 48t48.5 20t48.5 -20t19.5 -48t-19.5 -48t-48.5 -20zM429 746q-29 0 -48.5 20t-19.5 48t19.5 48t48.5 20t48.5 -20t19.5 -48t-19.5 -48t-48.5 -20zM577 700v-145h-331v-129h271v-139h-271v-142h331v-145h-501v700h501z" />
    <glyph glyph-name="Igrave" unicode="&#xcc;" horiz-adv-x="322" 
d="M-36 900h183l98 -150h-136zM76 0v700h170v-700h-170z" />
    <glyph glyph-name="Iacute" unicode="&#xcd;" horiz-adv-x="322" 
d="M83 750l98 150h183l-145 -150h-136zM76 0v700h170v-700h-170z" />
    <glyph glyph-name="Icircumflex" unicode="&#xce;" horiz-adv-x="322" 
d="M12 806l149 129l149 -129l-76 -72l-73 73l-73 -73zM76 0v700h170v-700h-170z" />
    <glyph glyph-name="Idieresis" unicode="&#xcf;" horiz-adv-x="322" 
d="M72 746q-28 0 -48 20t-20 48t20 48t48 20t48 -20t20 -48t-20 -48t-48 -20zM250 746q-28 0 -48 20t-20 48t20 48t48 20t48 -20t20 -48t-20 -48t-48 -20zM76 0v700h170v-700h-170z" />
    <glyph glyph-name="Eth" unicode="&#xd0;" horiz-adv-x="735" 
d="M76 700h248q178 0 276.5 -91.5t98.5 -258.5t-98.5 -258.5t-276.5 -91.5h-248v287h-58v126h58v287zM246 145h86q93 0 145 53.5t52 151.5t-52 151.5t-145 53.5h-86v-142h104v-126h-104v-142z" />
    <glyph glyph-name="Ntilde" unicode="&#xd1;" horiz-adv-x="785" 
d="M287 762l-52 58q53 68 113 68q21 0 36.5 -9t23 -19.5t18 -19.5t22.5 -9q28 0 55 33l52 -58q-19 -30 -49 -48.5t-61 -18.5q-27 0 -44 14.5t-29 28.5t-28 14q-32 0 -57 -34zM709 700v-700h-123l-343 400v-400h-167v700h123l343 -400v400h167z" />
    <glyph glyph-name="Ograve" unicode="&#xd2;" horiz-adv-x="796" 
d="M201 912h183l98 -150h-136zM398 -12q-154 0 -258 103.5t-104 258.5t104 258.5t258 103.5t258 -103.5t104 -258.5t-104 -258.5t-258 -103.5zM398 148q82 0 137 57.5t55 144.5t-55 144.5t-137 57.5t-137 -57.5t-55 -144.5t55 -144.5t137 -57.5z" />
    <glyph glyph-name="Oacute" unicode="&#xd3;" horiz-adv-x="796" 
d="M320 762l98 150h183l-145 -150h-136zM398 -12q-154 0 -258 103.5t-104 258.5t104 258.5t258 103.5t258 -103.5t104 -258.5t-104 -258.5t-258 -103.5zM398 148q82 0 137 57.5t55 144.5t-55 144.5t-137 57.5t-137 -57.5t-55 -144.5t55 -144.5t137 -57.5z" />
    <glyph glyph-name="Ocircumflex" unicode="&#xd4;" horiz-adv-x="796" 
d="M249 818l149 129l149 -129l-76 -72l-73 73l-73 -73zM398 -12q-154 0 -258 103.5t-104 258.5t104 258.5t258 103.5t258 -103.5t104 -258.5t-104 -258.5t-258 -103.5zM398 148q82 0 137 57.5t55 144.5t-55 144.5t-137 57.5t-137 -57.5t-55 -144.5t55 -144.5t137 -57.5z" />
    <glyph glyph-name="Otilde" unicode="&#xd5;" horiz-adv-x="796" 
d="M292 774l-52 58q53 68 113 68q21 0 36.5 -9t23 -19.5t18 -19.5t22.5 -9q28 0 55 33l52 -58q-19 -30 -49 -48.5t-61 -18.5q-27 0 -44 14.5t-29 28.5t-28 14q-32 0 -57 -34zM398 -12q-154 0 -258 103.5t-104 258.5t104 258.5t258 103.5t258 -103.5t104 -258.5t-104 -258.5
t-258 -103.5zM398 148q82 0 137 57.5t55 144.5t-55 144.5t-137 57.5t-137 -57.5t-55 -144.5t55 -144.5t137 -57.5z" />
    <glyph glyph-name="Odieresis" unicode="&#xd6;" horiz-adv-x="796" 
d="M309 758q-29 0 -48.5 20t-19.5 48t19.5 48t48.5 20t48.5 -20t19.5 -48t-19.5 -48t-48.5 -20zM487 758q-29 0 -48.5 20t-19.5 48t19.5 48t48.5 20t48.5 -20t19.5 -48t-19.5 -48t-48.5 -20zM398 -12q-154 0 -258 103.5t-104 258.5t104 258.5t258 103.5t258 -103.5
t104 -258.5t-104 -258.5t-258 -103.5zM398 148q82 0 137 57.5t55 144.5t-55 144.5t-137 57.5t-137 -57.5t-55 -144.5t55 -144.5t137 -57.5z" />
    <glyph glyph-name="multiply" unicode="&#xd7;" horiz-adv-x="510" 
d="M368 512l99 -99l-113 -113l113 -114l-99 -99l-113 113l-113 -113l-99 99l113 114l-113 113l99 99l113 -113z" />
    <glyph glyph-name="Oslash" unicode="&#xd8;" horiz-adv-x="796" 
d="M752 700l-82 -106q90 -103 90 -244q0 -155 -104 -258.5t-258 -103.5q-89 0 -165 37l-20 -25h-169l82 106q-90 103 -90 244q0 155 104 258.5t258 103.5q92 0 166 -38l20 26h168zM206 350q0 -57 27 -106l229 297q-31 11 -64 11q-82 0 -137 -57.5t-55 -144.5zM398 148
q82 0 137 57.5t55 144.5q0 56 -26 105l-229 -297q33 -10 63 -10z" />
    <glyph glyph-name="Ugrave" unicode="&#xd9;" horiz-adv-x="760" 
d="M183 900h183l98 -150h-136zM519 292v408h170v-419q0 -136 -82.5 -214.5t-226.5 -78.5t-225 78.5t-82 214.5l-2 419h170v-408q0 -69 36.5 -107.5t102.5 -38.5t102.5 38.5t36.5 107.5z" />
    <glyph glyph-name="Uacute" unicode="&#xda;" horiz-adv-x="760" 
d="M302 750l98 150h183l-145 -150h-136zM519 292v408h170v-419q0 -136 -82.5 -214.5t-226.5 -78.5t-225 78.5t-82 214.5l-2 419h170v-408q0 -69 36.5 -107.5t102.5 -38.5t102.5 38.5t36.5 107.5z" />
    <glyph glyph-name="Ucircumflex" unicode="&#xdb;" horiz-adv-x="760" 
d="M231 806l149 129l149 -129l-76 -72l-73 73l-73 -73zM519 292v408h170v-419q0 -136 -82.5 -214.5t-226.5 -78.5t-225 78.5t-82 214.5l-2 419h170v-408q0 -69 36.5 -107.5t102.5 -38.5t102.5 38.5t36.5 107.5z" />
    <glyph glyph-name="Udieresis" unicode="&#xdc;" horiz-adv-x="760" 
d="M291 746q-29 0 -48.5 20t-19.5 48t19.5 48t48.5 20t48.5 -20t19.5 -48t-19.5 -48t-48.5 -20zM469 746q-29 0 -48.5 20t-19.5 48t19.5 48t48.5 20t48.5 -20t19.5 -48t-19.5 -48t-48.5 -20zM519 292v408h170v-419q0 -136 -82.5 -214.5t-226.5 -78.5t-225 78.5t-82 214.5
l-2 419h170v-408q0 -69 36.5 -107.5t102.5 -38.5t102.5 38.5t36.5 107.5z" />
    <glyph glyph-name="Yacute" unicode="&#xdd;" horiz-adv-x="664" 
d="M254 750l98 150h183l-145 -150h-136zM331 449l140 251h191v-6l-246 -410v-284h-170v284l-244 410v6h191z" />
    <glyph glyph-name="Thorn" unicode="&#xde;" horiz-adv-x="615" 
d="M246 567h96q111 0 174 -57t63 -160t-63 -160t-174 -57h-96v-133h-170v700h170v-133zM246 278h85q37 0 57.5 19t20.5 53t-20.5 53t-57.5 19h-85v-144z" />
    <glyph glyph-name="germandbls" unicode="&#xdf;" horiz-adv-x="599" 
d="M437 399q59 -14 96 -64.5t37 -131.5q0 -88 -56 -147t-140 -59q-70 0 -115 14l27 134q23 -5 48 -5q36 0 56.5 23t20.5 61q0 37 -22.5 60t-61.5 23h-43v132h1q24 0 39.5 16.5t15.5 43.5q0 25 -16 41.5t-41 16.5q-28 0 -46 -18.5t-18 -57.5v-481h-158v472q0 113 57.5 172.5
t160.5 59.5q101 0 159 -49t58 -132q0 -44 -16 -77t-43 -47z" />
    <glyph glyph-name="agrave" unicode="&#xe0;" horiz-adv-x="589" 
d="M288 761l98 -150h-136l-145 150h183zM281 561q257 0 257 -244v-317h-163v25q-54 -35 -127 -35q-97 0 -160 53.5t-63 136.5t63 136.5t160 53.5q72 0 126 -35q-8 96 -121 96q-78 0 -155 -44l-52 110q41 25 104.5 44.5t130.5 19.5zM283 105q44 0 71 21.5t27 55.5t-27 55.5
t-71 21.5q-43 0 -70.5 -21.5t-27.5 -55.5t27.5 -55.5t70.5 -21.5z" />
    <glyph glyph-name="aacute" unicode="&#xe1;" horiz-adv-x="589" 
d="M322 761h183l-145 -150h-136zM281 561q257 0 257 -244v-317h-163v25q-54 -35 -127 -35q-97 0 -160 53.5t-63 136.5t63 136.5t160 53.5q72 0 126 -35q-8 96 -121 96q-78 0 -155 -44l-52 110q41 25 104.5 44.5t130.5 19.5zM283 105q44 0 71 21.5t27 55.5t-27 55.5t-71 21.5
q-43 0 -70.5 -21.5t-27.5 -55.5t27.5 -55.5t70.5 -21.5z" />
    <glyph glyph-name="acircumflex" unicode="&#xe2;" horiz-adv-x="589" 
d="M375 595l-73 73l-73 -73l-76 72l149 129l149 -129zM281 561q257 0 257 -244v-317h-163v25q-54 -35 -127 -35q-97 0 -160 53.5t-63 136.5t63 136.5t160 53.5q72 0 126 -35q-8 96 -121 96q-78 0 -155 -44l-52 110q41 25 104.5 44.5t130.5 19.5zM283 105q44 0 71 21.5
t27 55.5t-27 55.5t-71 21.5q-43 0 -70.5 -21.5t-27.5 -55.5t27.5 -55.5t70.5 -21.5z" />
    <glyph glyph-name="atilde" unicode="&#xe3;" horiz-adv-x="589" 
d="M253 657q-32 0 -57 -34l-52 58q53 68 113 68q26 0 43.5 -14.5t30 -28.5t26.5 -14q27 0 55 33l52 -58q-19 -30 -49 -48.5t-61 -18.5q-21 0 -36.5 9t-23 19.5t-18 19.5t-23.5 9zM281 561q257 0 257 -244v-317h-163v25q-54 -35 -127 -35q-97 0 -160 53.5t-63 136.5t63 136.5
t160 53.5q72 0 126 -35q-8 96 -121 96q-78 0 -155 -44l-52 110q41 25 104.5 44.5t130.5 19.5zM283 105q44 0 71 21.5t27 55.5t-27 55.5t-71 21.5q-43 0 -70.5 -21.5t-27.5 -55.5t27.5 -55.5t70.5 -21.5z" />
    <glyph glyph-name="adieresis" unicode="&#xe4;" horiz-adv-x="589" 
d="M213 607q-29 0 -48.5 19.5t-19.5 48.5t19.5 48.5t48.5 19.5t48.5 -19.5t19.5 -48.5t-19.5 -48.5t-48.5 -19.5zM391 607q-29 0 -48.5 19.5t-19.5 48.5t19.5 48.5t48.5 19.5t48.5 -19.5t19.5 -48.5t-19.5 -48.5t-48.5 -19.5zM281 561q257 0 257 -244v-317h-163v25
q-54 -35 -127 -35q-97 0 -160 53.5t-63 136.5t63 136.5t160 53.5q72 0 126 -35q-8 96 -121 96q-78 0 -155 -44l-52 110q41 25 104.5 44.5t130.5 19.5zM283 105q44 0 71 21.5t27 55.5t-27 55.5t-71 21.5q-43 0 -70.5 -21.5t-27.5 -55.5t27.5 -55.5t70.5 -21.5z" />
    <glyph glyph-name="aring" unicode="&#xe5;" horiz-adv-x="589" 
d="M302 588q-52 0 -86.5 34t-34.5 84q0 51 34.5 85t86.5 34t86.5 -34t34.5 -85q0 -50 -34.5 -84t-86.5 -34zM302 759q-21 0 -35.5 -15.5t-14.5 -37.5t14.5 -37.5t35.5 -15.5t35.5 15.5t14.5 37.5t-14.5 37.5t-35.5 15.5zM281 561q257 0 257 -244v-317h-163v25
q-54 -35 -127 -35q-97 0 -160 53.5t-63 136.5t63 136.5t160 53.5q72 0 126 -35q-8 96 -121 96q-78 0 -155 -44l-52 110q41 25 104.5 44.5t130.5 19.5zM283 105q44 0 71 21.5t27 55.5t-27 55.5t-71 21.5q-43 0 -70.5 -21.5t-27.5 -55.5t27.5 -55.5t70.5 -21.5z" />
    <glyph glyph-name="ae" unicode="&#xe6;" horiz-adv-x="972" 
d="M671 560q135 0 211 -104.5t58 -241.5h-389q15 -38 46.5 -60t72.5 -22q64 0 103 53l122 -84q-81 -111 -224 -111q-71 0 -133 32v-22h-163v25q-54 -35 -127 -35q-97 0 -160 53.5t-63 136.5t63 136.5t160 53.5q72 0 126 -35q-8 96 -121 96q-78 0 -155 -44l-52 110
q41 25 104.5 44.5t130.5 19.5q139 0 203 -71q76 70 187 70zM670 416q-45 0 -77.5 -24.5t-44.5 -67.5h239q-10 40 -40.5 66t-76.5 26zM283 105q44 0 71 21.5t27 55.5t-27 55.5t-71 21.5q-43 0 -70.5 -21.5t-27.5 -55.5t27.5 -55.5t70.5 -21.5z" />
    <glyph glyph-name="ccedilla" unicode="&#xe7;" horiz-adv-x="576" 
d="M310 132q34 0 63.5 19.5t47.5 51.5l128 -67q-24 -53 -73 -90.5t-111 -50.5l-17 -57q29 -6 42 -24.5t13 -39.5q0 -38 -30.5 -62t-84.5 -24q-62 0 -116 33l29 60q48 -24 77 -24q30 0 30 21q0 24 -50 34l17 79q-111 11 -178.5 89t-67.5 195q0 127 78 206.5t203 79.5
q77 0 143.5 -41t95.5 -106l-128 -66q-18 31 -48 50.5t-63 19.5q-56 0 -92 -40t-36 -103t36 -103t92 -40z" />
    <glyph glyph-name="egrave" unicode="&#xe8;" horiz-adv-x="607" 
d="M292 760l98 -150h-136l-145 150h183zM306 560q135 0 211 -104.5t58 -241.5h-389q15 -38 46.5 -60t72.5 -22q64 0 103 53l122 -84q-81 -111 -224 -111q-120 0 -198.5 81.5t-78.5 203.5q0 123 78.5 204t198.5 81zM305 416q-45 0 -77.5 -24.5t-44.5 -67.5h239
q-10 40 -40.5 66t-76.5 26z" />
    <glyph glyph-name="eacute" unicode="&#xe9;" horiz-adv-x="607" 
d="M326 760h183l-145 -150h-136zM306 560q135 0 211 -104.5t58 -241.5h-389q15 -38 46.5 -60t72.5 -22q64 0 103 53l122 -84q-81 -111 -224 -111q-120 0 -198.5 81.5t-78.5 203.5q0 123 78.5 204t198.5 81zM305 416q-45 0 -77.5 -24.5t-44.5 -67.5h239q-10 40 -40.5 66
t-76.5 26z" />
    <glyph glyph-name="ecircumflex" unicode="&#xea;" horiz-adv-x="607" 
d="M379 594l-73 73l-73 -73l-76 72l149 129l149 -129zM306 560q135 0 211 -104.5t58 -241.5h-389q15 -38 46.5 -60t72.5 -22q64 0 103 53l122 -84q-81 -111 -224 -111q-120 0 -198.5 81.5t-78.5 203.5q0 123 78.5 204t198.5 81zM305 416q-45 0 -77.5 -24.5t-44.5 -67.5h239
q-10 40 -40.5 66t-76.5 26z" />
    <glyph glyph-name="edieresis" unicode="&#xeb;" horiz-adv-x="607" 
d="M217 606q-29 0 -48.5 20t-19.5 48t19.5 48t48.5 20t48.5 -20t19.5 -48t-19.5 -48t-48.5 -20zM395 606q-29 0 -48.5 20t-19.5 48t19.5 48t48.5 20t48.5 -20t19.5 -48t-19.5 -48t-48.5 -20zM306 560q135 0 211 -104.5t58 -241.5h-389q15 -38 46.5 -60t72.5 -22q64 0 103 53
l122 -84q-81 -111 -224 -111q-120 0 -198.5 81.5t-78.5 203.5q0 123 78.5 204t198.5 81zM305 416q-45 0 -77.5 -24.5t-44.5 -67.5h239q-10 40 -40.5 66t-76.5 26z" />
    <glyph glyph-name="igrave" unicode="&#xec;" horiz-adv-x="282" 
d="M-56 750h183l98 -150h-136zM221 0h-160v550h160v-550z" />
    <glyph glyph-name="iacute" unicode="&#xed;" horiz-adv-x="282" 
d="M63 600l98 150h183l-145 -150h-136zM221 0h-160v550h160v-550z" />
    <glyph glyph-name="icircumflex" unicode="&#xee;" horiz-adv-x="282" 
d="M-8 656l149 129l149 -129l-76 -72l-73 73l-73 -73zM221 0h-160v550h160v-550z" />
    <glyph glyph-name="idieresis" unicode="&#xef;" horiz-adv-x="282" 
d="M52 596q-28 0 -48 20t-20 48t20 48t48 20t48 -20t20 -48t-20 -48t-48 -20zM230 596q-28 0 -48 20t-20 48t20 48t48 20t48 -20t20 -48t-20 -48t-48 -20zM221 0h-160v550h160v-550z" />
    <glyph glyph-name="eth" unicode="&#xf0;" horiz-adv-x="579" 
d="M429 668l-60 -47q181 -164 181 -384q0 -107 -75 -177.5t-183 -70.5q-112 0 -187.5 68.5t-75.5 173.5q0 97 65 160t155 63q49 0 80 -12q-34 50 -78 86l-91 -72l-74 87l61 49q-28 13 -72 31l69 138q76 -33 129 -67l81 65zM290 136q41 0 68.5 27t27.5 67q0 41 -28 69.5
t-68 28.5q-41 0 -69 -28.5t-28 -69.5q0 -40 28 -67t69 -27z" />
    <glyph glyph-name="ntilde" unicode="&#xf1;" horiz-adv-x="634" 
d="M284 646q-32 0 -57 -34l-52 58q53 68 113 68q21 0 36.5 -9t23 -19.5t18 -19.5t22.5 -9q28 0 55 33l52 -58q-19 -30 -49 -48.5t-61 -18.5q-27 0 -44 14.5t-29 28.5t-28 14zM383 560q97 0 148.5 -60t51.5 -176v-324h-160v314q0 50 -28 81t-73 31t-73 -31t-28 -81v-314h-160
v550h160v-60q61 70 162 70z" />
    <glyph glyph-name="ograve" unicode="&#xf2;" horiz-adv-x="622" 
d="M114 763h183l98 -150h-136zM311 -13q-123 0 -202.5 81t-79.5 207t79.5 207t202.5 81t202.5 -81t79.5 -207t-79.5 -207t-202.5 -81zM311 131q54 0 90.5 41t36.5 103t-36.5 103t-90.5 41t-90.5 -41t-36.5 -103t36.5 -103t90.5 -41z" />
    <glyph glyph-name="oacute" unicode="&#xf3;" horiz-adv-x="622" 
d="M233 613l98 150h183l-145 -150h-136zM311 -13q-123 0 -202.5 81t-79.5 207t79.5 207t202.5 81t202.5 -81t79.5 -207t-79.5 -207t-202.5 -81zM311 131q54 0 90.5 41t36.5 103t-36.5 103t-90.5 41t-90.5 -41t-36.5 -103t36.5 -103t90.5 -41z" />
    <glyph glyph-name="ocircumflex" unicode="&#xf4;" horiz-adv-x="622" 
d="M162 669l149 129l149 -129l-76 -72l-73 73l-73 -73zM311 -13q-123 0 -202.5 81t-79.5 207t79.5 207t202.5 81t202.5 -81t79.5 -207t-79.5 -207t-202.5 -81zM311 131q54 0 90.5 41t36.5 103t-36.5 103t-90.5 41t-90.5 -41t-36.5 -103t36.5 -103t90.5 -41z" />
    <glyph glyph-name="otilde" unicode="&#xf5;" horiz-adv-x="622" 
d="M205 625l-52 58q53 68 113 68q26 0 43.5 -14.5t30 -28.5t26.5 -14q28 0 55 33l52 -58q-19 -30 -49 -48.5t-61 -18.5q-21 0 -36.5 9t-23 19.5t-18 19.5t-23.5 9q-32 0 -57 -34zM311 -13q-123 0 -202.5 81t-79.5 207t79.5 207t202.5 81t202.5 -81t79.5 -207t-79.5 -207
t-202.5 -81zM311 131q54 0 90.5 41t36.5 103t-36.5 103t-90.5 41t-90.5 -41t-36.5 -103t36.5 -103t90.5 -41z" />
    <glyph glyph-name="odieresis" unicode="&#xf6;" horiz-adv-x="622" 
d="M222 609q-28 0 -48 19.5t-20 48.5t20 48.5t48 19.5t48 -19.5t20 -48.5t-20 -48.5t-48 -19.5zM400 609q-28 0 -48 19.5t-20 48.5t20 48.5t48 19.5t48 -19.5t20 -48.5t-20 -48.5t-48 -19.5zM311 -13q-123 0 -202.5 81t-79.5 207t79.5 207t202.5 81t202.5 -81t79.5 -207
t-79.5 -207t-202.5 -81zM311 131q54 0 90.5 41t36.5 103t-36.5 103t-90.5 41t-90.5 -41t-36.5 -103t36.5 -103t90.5 -41z" />
    <glyph glyph-name="divide" unicode="&#xf7;" horiz-adv-x="646" 
d="M323 419q-39 0 -66.5 27.5t-27.5 66.5t27.5 66.5t66.5 27.5t66.5 -27.5t27.5 -66.5t-27.5 -66.5t-66.5 -27.5zM587 230h-528v140h528v-140zM323 -7q-39 0 -66.5 27.5t-27.5 66.5t27.5 66.5t66.5 27.5t66.5 -27.5t27.5 -66.5t-27.5 -66.5t-66.5 -27.5z" />
    <glyph glyph-name="oslash" unicode="&#xf8;" horiz-adv-x="622" 
d="M590 550l-63 -82q66 -79 66 -193q0 -126 -79.5 -207t-202.5 -81q-73 0 -131 29l-13 -16h-133l62 81q-67 80 -67 194q0 126 79.5 207t202.5 81q72 0 134 -30l13 17h132zM184 275q0 -35 12 -64l156 201q-18 7 -41 7q-54 0 -90.5 -41t-36.5 -103zM311 131q54 0 90.5 41
t36.5 103q0 35 -12 62l-153 -200q18 -6 38 -6z" />
    <glyph glyph-name="ugrave" unicode="&#xf9;" horiz-adv-x="620" 
d="M113 750h183l98 -150h-136zM406 225v325h160l-2 -331q-1 -102 -70.5 -166t-183.5 -64t-185 64t-71 166v331h160v-325q0 -42 26.5 -68t69.5 -26t69.5 26t26.5 68z" />
    <glyph glyph-name="uacute" unicode="&#xfa;" horiz-adv-x="620" 
d="M232 600l98 150h183l-145 -150h-136zM406 225v325h160l-2 -331q-1 -102 -70.5 -166t-183.5 -64t-185 64t-71 166v331h160v-325q0 -42 26.5 -68t69.5 -26t69.5 26t26.5 68z" />
    <glyph glyph-name="ucircumflex" unicode="&#xfb;" horiz-adv-x="620" 
d="M161 656l149 129l149 -129l-76 -72l-73 73l-73 -73zM406 225v325h160l-2 -331q-1 -102 -70.5 -166t-183.5 -64t-185 64t-71 166v331h160v-325q0 -42 26.5 -68t69.5 -26t69.5 26t26.5 68z" />
    <glyph glyph-name="udieresis" unicode="&#xfc;" horiz-adv-x="620" 
d="M221 596q-29 0 -48.5 20t-19.5 48t19.5 48t48.5 20t48.5 -20t19.5 -48t-19.5 -48t-48.5 -20zM399 596q-29 0 -48.5 20t-19.5 48t19.5 48t48.5 20t48.5 -20t19.5 -48t-19.5 -48t-48.5 -20zM406 225v325h160l-2 -331q-1 -102 -70.5 -166t-183.5 -64t-185 64t-71 166v331
h160v-325q0 -42 26.5 -68t69.5 -26t69.5 26t26.5 68z" />
    <glyph glyph-name="yacute" unicode="&#xfd;" horiz-adv-x="544" 
d="M293 750h183l-145 -150h-136zM275 239l95 311h166v-6l-200 -607q-29 -89 -71 -132.5t-97.5 -47.5t-128.5 19l36 129q45 -14 73.5 -2.5t40.5 53.5l13 44l-196 544v6h171z" />
    <glyph glyph-name="thorn" unicode="&#xfe;" horiz-adv-x="666" 
d="M384 558q110 0 181.5 -81t71.5 -202t-71.5 -202t-181.5 -81q-105 0 -163 70v-262h-160v951h160v-263q58 70 163 70zM349 132q57 0 92.5 40.5t35.5 102.5t-35.5 102.5t-92.5 40.5q-54 0 -90.5 -41t-36.5 -102t36.5 -102t90.5 -41z" />
    <glyph glyph-name="ydieresis" unicode="&#xff;" horiz-adv-x="544" 
d="M184 596q-28 0 -48 20t-20 48t20 48t48 20t48 -20t20 -48t-20 -48t-48 -20zM362 596q-28 0 -48 20t-20 48t20 48t48 20t48 -20t20 -48t-20 -48t-48 -20zM275 239l95 311h166v-6l-200 -607q-29 -89 -71 -132.5t-97.5 -47.5t-128.5 19l36 129q45 -14 73.5 -2.5t40.5 53.5
l13 44l-196 544v6h171z" />
    <glyph glyph-name="Amacron" unicode="&#x100;" horiz-adv-x="698" 
d="M210 857h278v-97h-278v97zM287 700h124l294 -692v-8h-175l-42 109h-278l-42 -109h-175v8zM349 469l-87 -225h174z" />
    <glyph glyph-name="amacron" unicode="&#x101;" horiz-adv-x="589" 
d="M163 718h278v-97h-278v97zM281 561q257 0 257 -244v-317h-163v25q-54 -35 -127 -35q-97 0 -160 53.5t-63 136.5t63 136.5t160 53.5q72 0 126 -35q-8 96 -121 96q-78 0 -155 -44l-52 110q41 25 104.5 44.5t130.5 19.5zM283 105q44 0 71 21.5t27 55.5t-27 55.5t-71 21.5
q-43 0 -70.5 -21.5t-27.5 -55.5t27.5 -55.5t70.5 -21.5z" />
    <glyph glyph-name="Abreve" unicode="&#x102;" horiz-adv-x="698" 
d="M349 732q-61 0 -98.5 38t-43.5 105l104 15q2 -63 38 -63t38 63l104 -15q-6 -67 -43.5 -105t-98.5 -38zM287 700h124l294 -692v-8h-175l-42 109h-278l-42 -109h-175v8zM349 469l-87 -225h174z" />
    <glyph glyph-name="abreve" unicode="&#x103;" horiz-adv-x="589" 
d="M302 593q-61 0 -98.5 38t-43.5 105l104 15q2 -63 38 -63t38 63l104 -15q-6 -67 -43.5 -105t-98.5 -38zM281 561q257 0 257 -244v-317h-163v25q-54 -35 -127 -35q-97 0 -160 53.5t-63 136.5t63 136.5t160 53.5q72 0 126 -35q-8 96 -121 96q-78 0 -155 -44l-52 110
q41 25 104.5 44.5t130.5 19.5zM283 105q44 0 71 21.5t27 55.5t-27 55.5t-71 21.5q-43 0 -70.5 -21.5t-27.5 -55.5t27.5 -55.5t70.5 -21.5z" />
    <glyph glyph-name="Aogonek" unicode="&#x104;" horiz-adv-x="698" 
d="M707 -108l64 -26q-32 -94 -134 -94q-53 0 -84.5 30.5t-31.5 78.5q0 67 64 119h-55l-42 109h-278l-42 -109h-175v8l294 692h124l294 -692v-8q-39 -16 -62.5 -45.5t-23.5 -54.5q0 -44 40 -44q30 0 48 36zM349 469l-87 -225h174z" />
    <glyph glyph-name="aogonek" unicode="&#x105;" horiz-adv-x="589" 
d="M540 -108l64 -26q-32 -94 -134 -94q-53 0 -84.5 30.5t-31.5 78.5q0 67 64 119h-43v25q-54 -35 -127 -35q-97 0 -160 53.5t-63 136.5t63 136.5t160 53.5q72 0 126 -35q-8 96 -121 96q-78 0 -155 -44l-52 110q41 25 104.5 44.5t130.5 19.5q257 0 257 -244v-317
q-39 -16 -62.5 -45.5t-23.5 -54.5q0 -44 40 -44q30 0 48 36zM283 105q44 0 71 21.5t27 55.5t-27 55.5t-71 21.5q-43 0 -70.5 -21.5t-27.5 -55.5t27.5 -55.5t70.5 -21.5z" />
    <glyph glyph-name="Cacute" unicode="&#x106;" horiz-adv-x="650" 
d="M312 761l98 150h183l-145 -150h-136zM400 141q42 0 79 15.5t58 39.5l101 -111q-85 -97 -248 -97q-152 0 -253 103t-101 259t101 259t253 103q163 0 248 -97l-101 -111q-21 24 -58 39.5t-79 15.5q-85 0 -142 -59t-57 -150t57 -150t142 -59z" />
    <glyph glyph-name="cacute" unicode="&#x107;" horiz-adv-x="576" 
d="M232 611l98 150h183l-145 -150h-136zM29 275q0 127 78 206.5t203 79.5q77 0 143.5 -41t95.5 -106l-128 -66q-18 31 -48 50.5t-63 19.5q-56 0 -92 -40t-36 -103t36 -103t92 -40q34 0 63.5 19.5t47.5 51.5l128 -67q-29 -65 -95.5 -106t-143.5 -41q-125 0 -203 79.5
t-78 206.5z" />
    <glyph glyph-name="Ccircumflex" unicode="&#x108;" horiz-adv-x="650" 
d="M241 817l149 129l149 -129l-76 -72l-73 73l-73 -73zM400 141q42 0 79 15.5t58 39.5l101 -111q-85 -97 -248 -97q-152 0 -253 103t-101 259t101 259t253 103q163 0 248 -97l-101 -111q-21 24 -58 39.5t-79 15.5q-85 0 -142 -59t-57 -150t57 -150t142 -59z" />
    <glyph glyph-name="ccircumflex" unicode="&#x109;" horiz-adv-x="576" 
d="M161 667l149 129l149 -129l-76 -72l-73 73l-73 -73zM29 275q0 127 78 206.5t203 79.5q77 0 143.5 -41t95.5 -106l-128 -66q-18 31 -48 50.5t-63 19.5q-56 0 -92 -40t-36 -103t36 -103t92 -40q34 0 63.5 19.5t47.5 51.5l128 -67q-29 -65 -95.5 -106t-143.5 -41
q-125 0 -203 79.5t-78 206.5z" />
    <glyph glyph-name="Cdotaccent" unicode="&#x10a;" horiz-adv-x="650" 
d="M390 757q-28 0 -48 19.5t-20 48.5t20 48.5t48 19.5t48 -19.5t20 -48.5t-20 -48.5t-48 -19.5zM400 141q42 0 79 15.5t58 39.5l101 -111q-85 -97 -248 -97q-152 0 -253 103t-101 259t101 259t253 103q163 0 248 -97l-101 -111q-21 24 -58 39.5t-79 15.5q-85 0 -142 -59
t-57 -150t57 -150t142 -59z" />
    <glyph glyph-name="cdotaccent" unicode="&#x10b;" horiz-adv-x="576" 
d="M310 607q-28 0 -48 19.5t-20 48.5t20 48.5t48 19.5t48 -19.5t20 -48.5t-20 -48.5t-48 -19.5zM29 275q0 127 78 206.5t203 79.5q77 0 143.5 -41t95.5 -106l-128 -66q-18 31 -48 50.5t-63 19.5q-56 0 -92 -40t-36 -103t36 -103t92 -40q34 0 63.5 19.5t47.5 51.5l128 -67
q-29 -65 -95.5 -106t-143.5 -41q-125 0 -203 79.5t-78 206.5z" />
    <glyph glyph-name="Ccaron" unicode="&#x10c;" horiz-adv-x="650" 
d="M539 874l-149 -129l-149 129l76 72l73 -73l73 73zM400 141q42 0 79 15.5t58 39.5l101 -111q-85 -97 -248 -97q-152 0 -253 103t-101 259t101 259t253 103q163 0 248 -97l-101 -111q-21 24 -58 39.5t-79 15.5q-85 0 -142 -59t-57 -150t57 -150t142 -59z" />
    <glyph glyph-name="ccaron" unicode="&#x10d;" horiz-adv-x="576" 
d="M459 724l-149 -129l-149 129l76 72l73 -73l73 73zM29 275q0 127 78 206.5t203 79.5q77 0 143.5 -41t95.5 -106l-128 -66q-18 31 -48 50.5t-63 19.5q-56 0 -92 -40t-36 -103t36 -103t92 -40q34 0 63.5 19.5t47.5 51.5l128 -67q-29 -65 -95.5 -106t-143.5 -41
q-125 0 -203 79.5t-78 206.5z" />
    <glyph glyph-name="Dcaron" unicode="&#x10e;" horiz-adv-x="735" 
d="M505 863l-149 -129l-149 129l76 72l73 -73l73 73zM76 700h248q178 0 276.5 -91.5t98.5 -258.5t-98.5 -258.5t-276.5 -91.5h-248v700zM246 145h86q93 0 145 53.5t52 151.5t-52 151.5t-145 53.5h-86v-410z" />
    <glyph glyph-name="dcaron" unicode="&#x10f;" horiz-adv-x="799" 
d="M673 502v249h127v-102l-44 -147h-83zM445 488v262h160v-750h-160v62q-58 -70 -163 -70q-110 0 -181.5 81t-71.5 202t71.5 202t181.5 81q105 0 163 -70zM317 132q54 0 90.5 41t36.5 102t-36.5 102t-90.5 41q-57 0 -92.5 -40.5t-35.5 -102.5t35.5 -102.5t92.5 -40.5z" />
    <glyph glyph-name="Dcroat" unicode="&#x110;" horiz-adv-x="735" 
d="M76 700h248q178 0 276.5 -91.5t98.5 -258.5t-98.5 -258.5t-276.5 -91.5h-248v287h-58v126h58v287zM246 145h86q93 0 145 53.5t52 151.5t-52 151.5t-145 53.5h-86v-142h104v-126h-104v-142z" />
    <glyph glyph-name="dcroat" unicode="&#x111;" horiz-adv-x="666" 
d="M605 696h54v-114h-54v-582h-160v62q-58 -70 -163 -70q-110 0 -181.5 81t-71.5 202t71.5 202t181.5 81q105 0 163 -70v94h-107v114h107v54h160v-54zM317 132q54 0 90.5 41t36.5 102t-36.5 102t-90.5 41q-57 0 -92.5 -40.5t-35.5 -102.5t35.5 -102.5t92.5 -40.5z" />
    <glyph glyph-name="Emacron" unicode="&#x112;" horiz-adv-x="642" 
d="M479 760h-278v97h278v-97zM577 700v-145h-331v-129h271v-139h-271v-142h331v-145h-501v700h501z" />
    <glyph glyph-name="emacron" unicode="&#x113;" horiz-adv-x="607" 
d="M167 717h278v-97h-278v97zM306 560q135 0 211 -104.5t58 -241.5h-389q15 -38 46.5 -60t72.5 -22q64 0 103 53l122 -84q-81 -111 -224 -111q-120 0 -198.5 81.5t-78.5 203.5q0 123 78.5 204t198.5 81zM305 416q-45 0 -77.5 -24.5t-44.5 -67.5h239q-10 40 -40.5 66
t-76.5 26z" />
    <glyph glyph-name="Ebreve" unicode="&#x114;" horiz-adv-x="642" 
d="M340 732q-61 0 -98.5 38t-43.5 105l104 15q2 -63 38 -63t38 63l104 -15q-6 -67 -43.5 -105t-98.5 -38zM577 700v-145h-331v-129h271v-139h-271v-142h331v-145h-501v700h501z" />
    <glyph glyph-name="ebreve" unicode="&#x115;" horiz-adv-x="607" 
d="M306 592q-61 0 -98.5 38t-43.5 105l104 15q2 -63 38 -63t38 63l104 -15q-6 -67 -43.5 -105t-98.5 -38zM306 560q135 0 211 -104.5t58 -241.5h-389q15 -38 46.5 -60t72.5 -22q64 0 103 53l122 -84q-81 -111 -224 -111q-120 0 -198.5 81.5t-78.5 203.5q0 123 78.5 204
t198.5 81zM305 416q-45 0 -77.5 -24.5t-44.5 -67.5h239q-10 40 -40.5 66t-76.5 26z" />
    <glyph glyph-name="Edotaccent" unicode="&#x116;" horiz-adv-x="642" 
d="M340 746q-28 0 -48 20t-20 48t20 48t48 20t48 -20t20 -48t-20 -48t-48 -20zM577 700v-145h-331v-129h271v-139h-271v-142h331v-145h-501v700h501z" />
    <glyph glyph-name="edotaccent" unicode="&#x117;" horiz-adv-x="607" 
d="M306 606q-28 0 -48 20t-20 48t20 48t48 20t48 -20t20 -48t-20 -48t-48 -20zM306 560q135 0 211 -104.5t58 -241.5h-389q15 -38 46.5 -60t72.5 -22q64 0 103 53l122 -84q-81 -111 -224 -111q-120 0 -198.5 81.5t-78.5 203.5q0 123 78.5 204t198.5 81zM305 416
q-45 0 -77.5 -24.5t-44.5 -67.5h239q-10 40 -40.5 66t-76.5 26z" />
    <glyph glyph-name="Eogonek" unicode="&#x118;" horiz-adv-x="642" 
d="M579 -108l64 -26q-32 -94 -134 -94q-53 0 -84.5 30.5t-31.5 78.5q0 67 64 119h-381v700h501v-145h-331v-129h271v-139h-271v-142h331v-145q-39 -16 -62.5 -45.5t-23.5 -54.5q0 -44 40 -44q30 0 48 36z" />
    <glyph glyph-name="eogonek" unicode="&#x119;" horiz-adv-x="607" 
d="M306 560q135 0 211 -104.5t58 -241.5h-389q15 -38 46.5 -60t72.5 -22q64 0 103 53l122 -84q-71 -96 -189 -109q-32 -18 -51.5 -44.5t-19.5 -48.5q0 -44 40 -44q30 0 48 36l64 -26q-32 -94 -134 -94q-53 0 -84.5 30.5t-31.5 78.5q0 68 64 118q-93 23 -150 99t-57 178
q0 123 78.5 204t198.5 81zM305 416q-45 0 -77.5 -24.5t-44.5 -67.5h239q-10 40 -40.5 66t-76.5 26z" />
    <glyph glyph-name="Ecaron" unicode="&#x11a;" horiz-adv-x="642" 
d="M489 863l-149 -129l-149 129l76 72l73 -73l73 73zM577 700v-145h-331v-129h271v-139h-271v-142h331v-145h-501v700h501z" />
    <glyph glyph-name="ecaron" unicode="&#x11b;" horiz-adv-x="607" 
d="M379 795l76 -72l-149 -129l-149 129l76 72l73 -73zM306 560q135 0 211 -104.5t58 -241.5h-389q15 -38 46.5 -60t72.5 -22q64 0 103 53l122 -84q-81 -111 -224 -111q-120 0 -198.5 81.5t-78.5 203.5q0 123 78.5 204t198.5 81zM305 416q-45 0 -77.5 -24.5t-44.5 -67.5h239
q-10 40 -40.5 66t-76.5 26z" />
    <glyph glyph-name="Gcircumflex" unicode="&#x11c;" horiz-adv-x="778" 
d="M472 745l-73 73l-73 -73l-76 72l149 129l149 -129zM413 419h325q23 -188 -74 -309.5t-265 -121.5q-158 0 -260.5 102.5t-102.5 259.5t102.5 259t260.5 102q76 0 149.5 -34.5t119.5 -91.5l-112 -99q-28 32 -71 52t-83 20q-84 0 -138.5 -58t-54.5 -150t54.5 -148t138.5 -56
q68 0 117 38.5t60 101.5h-166v133z" />
    <glyph glyph-name="gcircumflex" unicode="&#x11d;" horiz-adv-x="607" 
d="M350 594l-73 73l-73 -73l-76 72l149 129l149 -129zM601 557v-145q-55 0 -93 -11q8 -30 8 -61q0 -95 -67.5 -157t-171.5 -62q-33 0 -67 8q-13 -13 -13 -26q0 -26 64 -26h101q204 0 204 -167q0 -86 -66 -135t-193 -49q-179 0 -306 72l64 125q111 -53 242 -53q99 0 99 35
q0 18 -15 25t-56 7h-107q-93 0 -145.5 35.5t-52.5 96.5q0 73 69 120q-61 59 -61 151q0 96 67.5 158t171.5 62q95 0 160 -52q48 49 164 49zM277 258q37 0 60.5 23t23.5 59t-23.5 59t-60.5 23t-60.5 -23t-23.5 -59t23.5 -59t60.5 -23z" />
    <glyph glyph-name="Gbreve" unicode="&#x11e;" horiz-adv-x="778" 
d="M399 743q-61 0 -98.5 38t-43.5 105l104 15q2 -63 38 -63t38 63l104 -15q-6 -67 -43.5 -105t-98.5 -38zM413 419h325q23 -188 -74 -309.5t-265 -121.5q-158 0 -260.5 102.5t-102.5 259.5t102.5 259t260.5 102q76 0 149.5 -34.5t119.5 -91.5l-112 -99q-28 32 -71 52t-83 20
q-84 0 -138.5 -58t-54.5 -150t54.5 -148t138.5 -56q68 0 117 38.5t60 101.5h-166v133z" />
    <glyph glyph-name="gbreve" unicode="&#x11f;" horiz-adv-x="607" 
d="M277 592q-61 0 -98.5 38t-43.5 105l104 15q2 -63 38 -63t38 63l104 -15q-6 -67 -43.5 -105t-98.5 -38zM601 557v-145q-55 0 -93 -11q8 -30 8 -61q0 -95 -67.5 -157t-171.5 -62q-33 0 -67 8q-13 -13 -13 -26q0 -26 64 -26h101q204 0 204 -167q0 -86 -66 -135t-193 -49
q-179 0 -306 72l64 125q111 -53 242 -53q99 0 99 35q0 18 -15 25t-56 7h-107q-93 0 -145.5 35.5t-52.5 96.5q0 73 69 120q-61 59 -61 151q0 96 67.5 158t171.5 62q95 0 160 -52q48 49 164 49zM277 258q37 0 60.5 23t23.5 59t-23.5 59t-60.5 23t-60.5 -23t-23.5 -59t23.5 -59
t60.5 -23z" />
    <glyph glyph-name="Gdotaccent" unicode="&#x120;" horiz-adv-x="778" 
d="M399 757q-29 0 -48.5 19.5t-19.5 48.5t19.5 48.5t48.5 19.5t48.5 -19.5t19.5 -48.5t-19.5 -48.5t-48.5 -19.5zM413 419h325q23 -188 -74 -309.5t-265 -121.5q-158 0 -260.5 102.5t-102.5 259.5t102.5 259t260.5 102q76 0 149.5 -34.5t119.5 -91.5l-112 -99q-28 32 -71 52
t-83 20q-84 0 -138.5 -58t-54.5 -150t54.5 -148t138.5 -56q68 0 117 38.5t60 101.5h-166v133z" />
    <glyph glyph-name="gdotaccent" unicode="&#x121;" horiz-adv-x="607" 
d="M277 606q-29 0 -48.5 20t-19.5 48t19.5 48t48.5 20t48.5 -20t19.5 -48t-19.5 -48t-48.5 -20zM601 557v-145q-55 0 -93 -11q8 -30 8 -61q0 -95 -67.5 -157t-171.5 -62q-33 0 -67 8q-13 -13 -13 -26q0 -26 64 -26h101q204 0 204 -167q0 -86 -66 -135t-193 -49
q-179 0 -306 72l64 125q111 -53 242 -53q99 0 99 35q0 18 -15 25t-56 7h-107q-93 0 -145.5 35.5t-52.5 96.5q0 73 69 120q-61 59 -61 151q0 96 67.5 158t171.5 62q95 0 160 -52q48 49 164 49zM277 258q37 0 60.5 23t23.5 59t-23.5 59t-60.5 23t-60.5 -23t-23.5 -59t23.5 -59
t60.5 -23z" />
    <glyph glyph-name="uni0122" unicode="&#x122;" horiz-adv-x="778" 
d="M413 419h325q23 -188 -74 -309.5t-265 -121.5q-158 0 -260.5 102.5t-102.5 259.5t102.5 259t260.5 102q76 0 149.5 -34.5t119.5 -91.5l-112 -99q-28 32 -71 52t-83 20q-84 0 -138.5 -58t-54.5 -150t54.5 -148t138.5 -56q68 0 117 38.5t60 101.5h-166v133zM421 -240h-79
v186h120v-76z" />
    <glyph glyph-name="uni0123" unicode="&#x123;" horiz-adv-x="607" 
d="M282 769h116l-60 -159h-131zM601 557v-145q-55 0 -93 -11q8 -30 8 -61q0 -95 -67.5 -157t-171.5 -62q-33 0 -67 8q-13 -13 -13 -26q0 -26 64 -26h101q204 0 204 -167q0 -86 -66 -135t-193 -49q-179 0 -306 72l64 125q111 -53 242 -53q99 0 99 35q0 18 -15 25t-56 7h-107
q-93 0 -145.5 35.5t-52.5 96.5q0 73 69 120q-61 59 -61 151q0 96 67.5 158t171.5 62q95 0 160 -52q48 49 164 49zM277 258q37 0 60.5 23t23.5 59t-23.5 59t-60.5 23t-60.5 -23t-23.5 -59t23.5 -59t60.5 -23z" />
    <glyph glyph-name="Hcircumflex" unicode="&#x124;" horiz-adv-x="770" 
d="M458 734l-73 73l-73 -73l-76 72l149 129l149 -129zM524 439v261h170v-700h-170v294h-278v-294h-170v700h170v-261h278z" />
    <glyph glyph-name="hcircumflex" unicode="&#x125;" horiz-adv-x="634" 
d="M214 784l-73 73l-73 -73l-76 72l149 129l149 -129zM386 555q96 0 146.5 -63.5t50.5 -182.5v-309h-160v309q0 51 -28 81.5t-73 30.5t-73 -30.5t-28 -81.5v-309h-160v750h160v-267q60 72 165 72z" />
    <glyph glyph-name="Hbar" unicode="&#x126;" horiz-adv-x="770" 
d="M694 616h43v-116h-43v-500h-170v294h-278v-294h-170v500h-45v116h45v84h170v-84h278v84h170v-84zM246 439h278v61h-278v-61z" />
    <glyph glyph-name="hbar" unicode="&#x127;" horiz-adv-x="634" 
d="M386 555q96 0 146.5 -63.5t50.5 -182.5v-309h-160v309q0 51 -28 81.5t-73 30.5t-73 -30.5t-28 -81.5v-309h-160v577h-54v114h54v59h160v-59h107v-114h-107v-94q60 72 165 72z" />
    <glyph glyph-name="Itilde" unicode="&#x128;" horiz-adv-x="322" 
d="M55 762l-52 58q53 68 113 68q21 0 36.5 -9t23 -19.5t18 -19.5t22.5 -9q28 0 55 33l52 -58q-19 -30 -49 -48.5t-61 -18.5q-27 0 -44 14.5t-29 28.5t-28 14q-32 0 -57 -34zM76 0v700h170v-700h-170z" />
    <glyph glyph-name="itilde" unicode="&#x129;" horiz-adv-x="282" 
d="M35 612l-52 58q53 68 113 68q21 0 36.5 -9t23 -19.5t18 -19.5t22.5 -9q28 0 55 33l52 -58q-19 -30 -49 -48.5t-61 -18.5q-27 0 -44 14.5t-29 28.5t-28 14q-32 0 -57 -34zM221 0h-160v550h160v-550z" />
    <glyph glyph-name="Imacron" unicode="&#x12a;" horiz-adv-x="322" 
d="M300 760h-278v97h278v-97zM76 0v700h170v-700h-170z" />
    <glyph glyph-name="imacron" unicode="&#x12b;" horiz-adv-x="282" 
d="M280 610h-278v97h278v-97zM221 0h-160v550h160v-550z" />
    <glyph glyph-name="Ibreve" unicode="&#x12c;" horiz-adv-x="322" 
d="M199 890l104 -15q-6 -67 -43.5 -105t-98.5 -38t-98.5 38t-43.5 105l104 15q2 -63 38 -63t38 63zM246 0h-170v700h170v-700z" />
    <glyph glyph-name="ibreve" unicode="&#x12d;" horiz-adv-x="282" 
d="M179 740l104 -15q-6 -67 -43.5 -105t-98.5 -38t-98.5 38t-43.5 105l104 15q2 -63 38 -63t38 63zM221 0h-160v550h160v-550z" />
    <glyph glyph-name="Iogonek" unicode="&#x12e;" horiz-adv-x="322" 
d="M248 -108l64 -26q-32 -94 -134 -94q-53 0 -84.5 30.5t-31.5 78.5q0 67 64 119h-50v700h170v-700q-39 -16 -62.5 -45.5t-23.5 -54.5q0 -44 40 -44q30 0 48 36z" />
    <glyph glyph-name="iogonek" unicode="&#x12f;" horiz-adv-x="282" 
d="M141 596q-29 0 -48.5 20t-19.5 48t19.5 48t48.5 20t48.5 -20t19.5 -48t-19.5 -48t-48.5 -20zM223 -108l64 -26q-32 -94 -134 -94q-53 0 -84.5 30.5t-31.5 78.5q0 67 64 119h-40v550h160v-550q-39 -16 -62.5 -45.5t-23.5 -54.5q0 -44 40 -44q30 0 48 36z" />
    <glyph glyph-name="Idotaccent" unicode="&#x130;" horiz-adv-x="322" 
d="M161 746q-29 0 -48.5 20t-19.5 48t19.5 48t48.5 20t48.5 -20t19.5 -48t-19.5 -48t-48.5 -20zM76 0v700h170v-700h-170z" />
    <glyph glyph-name="dotlessi" unicode="&#x131;" horiz-adv-x="282" 
d="M221 0h-160v550h160v-550z" />
    <glyph glyph-name="IJ" unicode="&#x132;" horiz-adv-x="854" 
d="M76 0v700h170v-700h-170zM310 146l152 60q18 -66 80 -66q31 0 50.5 19.5t19.5 60.5v480h170v-480q0 -110 -61.5 -170.5t-170.5 -60.5q-89 0 -151.5 39.5t-88.5 117.5z" />
    <glyph glyph-name="ij" unicode="&#x133;" horiz-adv-x="550" 
d="M141 604q-41 0 -68.5 28t-27.5 68t27.5 68t68.5 28t68.5 -28t27.5 -68t-27.5 -68t-68.5 -28zM409 604q-41 0 -68.5 28t-27.5 68t28 67.5t68 27.5t68 -27.5t28 -67.5t-27.5 -68t-68.5 -28zM221 0h-160v550h160v-550zM163 -208l58 117q35 -15 60 -15q48 0 48 65v591h160
v-617q0 -92 -49.5 -139.5t-124.5 -47.5q-73 0 -152 46z" />
    <glyph glyph-name="Jcircumflex" unicode="&#x134;" horiz-adv-x="532" 
d="M226 806l149 129l149 -129l-76 -72l-73 73l-73 -73zM-12 146l152 60q18 -66 80 -66q31 0 50.5 19.5t19.5 60.5v480h170v-480q0 -110 -61.5 -170.5t-170.5 -60.5q-89 0 -151.5 39.5t-88.5 117.5z" />
    <glyph glyph-name="jcircumflex" unicode="&#x135;" horiz-adv-x="282" 
d="M-8 656l149 129l149 -129l-76 -72l-73 73l-73 -73zM-105 -208l58 117q35 -15 60 -15q48 0 48 65v591h160v-617q0 -92 -49.5 -139.5t-124.5 -47.5q-73 0 -152 46z" />
    <glyph glyph-name="uni0136" unicode="&#x136;" horiz-adv-x="697" 
d="M682 695l-288 -324l300 -366v-5h-206l-242 300v-300h-170v700h170v-266l228 266h208v-5zM385 -228h-79v186h120v-76z" />
    <glyph glyph-name="uni0137" unicode="&#x137;" horiz-adv-x="580" 
d="M582 546l-207 -245l211 -297v-4h-190l-175 254v-254h-160v750h160v-405l165 205h196v-4zM343 -228h-79v186h120v-76z" />
    <glyph glyph-name="Lacute" unicode="&#x139;" horiz-adv-x="569" 
d="M86 750l98 150h183l-145 -150h-136zM246 700v-555h290v-145h-460v700h170z" />
    <glyph glyph-name="lacute" unicode="&#x13a;" horiz-adv-x="282" 
d="M63 800l98 150h183l-145 -150h-136zM221 0h-160v750h160v-750z" />
    <glyph glyph-name="uni013B" unicode="&#x13b;" horiz-adv-x="569" 
d="M246 700v-555h290v-145h-460v700h170zM256 -228v186h120v-76l-41 -110h-79z" />
    <glyph glyph-name="uni013C" unicode="&#x13c;" horiz-adv-x="282" 
d="M221 0h-160v750h160v-750zM84 -228v186h120v-76l-41 -110h-79z" />
    <glyph glyph-name="Lcaron" unicode="&#x13d;" horiz-adv-x="569" 
d="M246 700v-555h290v-145h-460v700h170zM416 443v257h117v-105l-40 -152h-77z" />
    <glyph glyph-name="lcaron" unicode="&#x13e;" horiz-adv-x="407" 
d="M281 502v249h127v-102l-44 -147h-83zM221 0h-160v750h160v-750z" />
    <glyph glyph-name="Ldot" unicode="&#x13f;" horiz-adv-x="569" 
d="M246 700v-555h290v-145h-460v700h170zM397 307q-32 0 -54 22t-22 53q0 32 22.5 54t53.5 22t53.5 -22t22.5 -54q0 -31 -22 -53t-54 -22z" />
    <glyph glyph-name="ldot" unicode="&#x140;" horiz-adv-x="401" 
d="M221 0h-160v750h160v-750zM336 259q-32 0 -54 22t-22 53q0 32 22 54t54 22t54 -22t22 -54q0 -31 -22 -53t-54 -22z" />
    <glyph glyph-name="Lslash" unicode="&#x141;" horiz-adv-x="569" 
d="M246 304v-159h290v-145h-460v179l-67 -49v160l67 49v361h170v-236l145 106v-160z" />
    <glyph glyph-name="lslash" unicode="&#x142;" horiz-adv-x="320" 
d="M241 495l69 60v-149l-69 -60v-346h-160v206l-69 -60v149l69 60v395h160v-255z" />
    <glyph glyph-name="Nacute" unicode="&#x143;" horiz-adv-x="785" 
d="M315 750l98 150h183l-145 -150h-136zM709 700v-700h-123l-343 400v-400h-167v700h123l343 -400v400h167z" />
    <glyph glyph-name="nacute" unicode="&#x144;" horiz-adv-x="634" 
d="M353 750h183l-145 -150h-136zM383 560q97 0 148.5 -60t51.5 -176v-324h-160v314q0 50 -28 81t-73 31t-73 -31t-28 -81v-314h-160v550h160v-60q61 70 162 70z" />
    <glyph glyph-name="uni0145" unicode="&#x145;" horiz-adv-x="785" 
d="M709 700v-700h-123l-343 400v-400h-167v700h123l343 -400v400h167zM336 -228v186h120v-76l-41 -110h-79z" />
    <glyph glyph-name="uni0146" unicode="&#x146;" horiz-adv-x="634" 
d="M383 560q97 0 148.5 -60t51.5 -176v-324h-160v314q0 50 -28 81t-73 31t-73 -31t-28 -81v-314h-160v550h160v-60q61 70 162 70zM346 -228h-79v186h120v-76z" />
    <glyph glyph-name="Ncaron" unicode="&#x147;" horiz-adv-x="785" 
d="M542 863l-149 -129l-149 129l76 72l73 -73l73 73zM709 700v-700h-123l-343 400v-400h-167v700h123l343 -400v400h167z" />
    <glyph glyph-name="ncaron" unicode="&#x148;" horiz-adv-x="634" 
d="M406 785l76 -72l-149 -129l-149 129l76 72l73 -73zM383 560q97 0 148.5 -60t51.5 -176v-324h-160v314q0 50 -28 81t-73 31t-73 -31t-28 -81v-314h-160v550h160v-60q61 70 162 70z" />
    <glyph glyph-name="napostrophe" unicode="&#x149;" horiz-adv-x="634" 
d="M108 825h134l-68 -236h-104zM383 560q97 0 148.5 -60t51.5 -176v-324h-160v314q0 50 -28 81t-73 31t-73 -31t-28 -81v-314h-160v550h160v-60q61 70 162 70z" />
    <glyph glyph-name="Eng" unicode="&#x14a;" horiz-adv-x="785" 
d="M542 300v400h167v-774q0 -70 -36.5 -116t-90 -59t-114.5 0t-108 52l63 116q53 -36 89.5 -26.5t36.5 65.5v85l-306 357v-400h-167v700h123z" />
    <glyph glyph-name="eng" unicode="&#x14b;" horiz-adv-x="634" 
d="M383 560q97 0 148.5 -60t51.5 -176v-398q0 -70 -36.5 -116t-90 -59t-114.5 0t-108 52l63 116q53 -36 89.5 -26.5t36.5 65.5v356q0 50 -28 81t-73 31t-73 -31t-28 -81v-314h-160v550h160v-60q61 70 162 70z" />
    <glyph glyph-name="Omacron" unicode="&#x14c;" horiz-adv-x="796" 
d="M537 772h-278v97h278v-97zM398 -12q-154 0 -258 103.5t-104 258.5t104 258.5t258 103.5t258 -103.5t104 -258.5t-104 -258.5t-258 -103.5zM398 148q82 0 137 57.5t55 144.5t-55 144.5t-137 57.5t-137 -57.5t-55 -144.5t55 -144.5t137 -57.5z" />
    <glyph glyph-name="omacron" unicode="&#x14d;" horiz-adv-x="622" 
d="M450 623h-278v97h278v-97zM311 -13q-123 0 -202.5 81t-79.5 207t79.5 207t202.5 81t202.5 -81t79.5 -207t-79.5 -207t-202.5 -81zM311 131q54 0 90.5 41t36.5 103t-36.5 103t-90.5 41t-90.5 -41t-36.5 -103t36.5 -103t90.5 -41z" />
    <glyph glyph-name="Obreve" unicode="&#x14e;" horiz-adv-x="796" 
d="M398 744q-61 0 -98.5 38t-43.5 105l104 15q2 -63 38 -63t38 63l104 -15q-6 -67 -43.5 -105t-98.5 -38zM398 712q154 0 258 -103.5t104 -258.5t-104 -258.5t-258 -103.5t-258 103.5t-104 258.5t104 258.5t258 103.5zM398 148q82 0 137 57.5t55 144.5t-55 144.5t-137 57.5
t-137 -57.5t-55 -144.5t55 -144.5t137 -57.5z" />
    <glyph glyph-name="obreve" unicode="&#x14f;" horiz-adv-x="622" 
d="M311 595q-61 0 -98.5 38t-43.5 105l104 15q2 -63 38 -63t38 63l104 -15q-6 -67 -43.5 -105t-98.5 -38zM311 563q123 0 202.5 -81t79.5 -207t-79.5 -207t-202.5 -81t-202.5 81t-79.5 207t79.5 207t202.5 81zM311 131q54 0 90.5 41t36.5 103t-36.5 103t-90.5 41t-90.5 -41
t-36.5 -103t36.5 -103t90.5 -41z" />
    <glyph glyph-name="Ohungarumlaut" unicode="&#x150;" horiz-adv-x="796" 
d="M348 932h100l-83 -170h-83zM479 932h100l-83 -170h-83zM398 -12q-154 0 -258 103.5t-104 258.5t104 258.5t258 103.5t258 -103.5t104 -258.5t-104 -258.5t-258 -103.5zM398 148q82 0 137 57.5t55 144.5t-55 144.5t-137 57.5t-137 -57.5t-55 -144.5t55 -144.5t137 -57.5z
" />
    <glyph glyph-name="ohungarumlaut" unicode="&#x151;" horiz-adv-x="622" 
d="M261 783h100l-83 -170h-83zM392 783h100l-83 -170h-83zM311 -13q-123 0 -202.5 81t-79.5 207t79.5 207t202.5 81t202.5 -81t79.5 -207t-79.5 -207t-202.5 -81zM311 131q54 0 90.5 41t36.5 103t-36.5 103t-90.5 41t-90.5 -41t-36.5 -103t36.5 -103t90.5 -41z" />
    <glyph glyph-name="OE" unicode="&#x152;" horiz-adv-x="1042" 
d="M977 700v-145h-331v-129h271v-139h-271v-142h331v-145h-575q-175 0 -270.5 91.5t-95.5 258.5t95.5 258.5t270.5 91.5h575zM394 145h82v410h-82q-90 0 -139 -53.5t-49 -151.5t49 -151.5t139 -53.5z" />
    <glyph glyph-name="oe" unicode="&#x153;" horiz-adv-x="915" 
d="M614 560q135 0 211 -104.5t58 -241.5h-389q15 -38 46.5 -60t72.5 -22q64 0 103 53l122 -84q-81 -111 -224 -111q-85 0 -154 44q-69 -45 -150 -45q-125 0 -203 79.5t-78 206.5t78 206.5t203 79.5q81 0 150 -45q68 44 154 44zM182 275q0 -63 36 -103t92 -40q29 0 55 14
q-28 61 -28 129q0 69 27 129q-25 14 -54 14q-56 0 -92 -40t-36 -103zM491 324h239q-10 40 -40.5 66t-76.5 26q-45 0 -77.5 -24.5t-44.5 -67.5z" />
    <glyph glyph-name="Racute" unicode="&#x154;" horiz-adv-x="685" 
d="M358 900h183l-145 -150h-136zM511 264l145 -256v-8h-180l-130 245h-100v-245h-170v700h324q113 0 177 -60.5t64 -166.5q0 -77 -33.5 -130.5t-96.5 -78.5zM378 555h-132v-165h132q44 0 68.5 22.5t24.5 60.5q0 37 -24.5 59.5t-68.5 22.5z" />
    <glyph glyph-name="racute" unicode="&#x155;" horiz-adv-x="432" 
d="M275 750h183l-145 -150h-136zM210 457l4 -1q22 53 74 79t117 20v-151q-76 9 -130 -32.5t-54 -138.5v-233h-160v550h135z" />
    <glyph glyph-name="uni0156" unicode="&#x156;" horiz-adv-x="685" 
d="M511 264l145 -256v-8h-180l-130 245h-100v-245h-170v700h324q113 0 177 -60.5t64 -166.5q0 -77 -33.5 -130.5t-96.5 -78.5zM378 555h-132v-165h132q44 0 68.5 22.5t24.5 60.5q0 37 -24.5 59.5t-68.5 22.5zM377 -228h-79v186h120v-76z" />
    <glyph glyph-name="uni0157" unicode="&#x157;" horiz-adv-x="432" 
d="M210 457l4 -1q22 53 74 79t117 20v-151q-76 9 -130 -32.5t-54 -138.5v-233h-160v550h135zM163 -228h-79v186h120v-76z" />
    <glyph glyph-name="Rcaron" unicode="&#x158;" horiz-adv-x="685" 
d="M411 935l76 -72l-149 -129l-149 129l76 72l73 -73zM511 264l145 -256v-8h-180l-130 245h-100v-245h-170v700h324q113 0 177 -60.5t64 -166.5q0 -77 -33.5 -130.5t-96.5 -78.5zM378 555h-132v-165h132q44 0 68.5 22.5t24.5 60.5q0 37 -24.5 59.5t-68.5 22.5z" />
    <glyph glyph-name="rcaron" unicode="&#x159;" horiz-adv-x="432" 
d="M328 785l76 -72l-149 -129l-149 129l76 72l73 -73zM210 457l4 -1q22 53 74 79t117 20v-151q-76 9 -130 -32.5t-54 -138.5v-233h-160v550h135z" />
    <glyph glyph-name="Sacute" unicode="&#x15a;" horiz-adv-x="628" 
d="M231 761l98 150h183l-145 -150h-136zM571 552l-143 -69q-44 83 -133 83q-84 0 -84 -53q0 -28 29.5 -47.5t118.5 -46.5q54 -16 91 -32.5t69 -41.5t47.5 -61t15.5 -84q0 -54 -24 -96t-63 -66.5t-84.5 -37t-94.5 -12.5q-102 0 -178 47t-108 136l137 77q59 -113 159 -113
q89 0 89 58q0 31 -30 53t-107 47q-40 13 -66 23t-61 29t-56 40.5t-36 55t-15 73.5q0 98 74.5 148t182.5 50q100 0 168 -44t102 -116z" />
    <glyph glyph-name="sacute" unicode="&#x15b;" horiz-adv-x="508" 
d="M174 613l98 150h183l-145 -150h-136zM475 435l-131 -57q-14 24 -40 40.5t-57 16.5q-63 0 -63 -35q0 -20 21 -32.5t86 -29.5q95 -24 142.5 -63.5t47.5 -116.5q0 -84 -66.5 -128.5t-157.5 -44.5q-192 0 -245 140l131 66q39 -75 116 -75q64 0 64 45q0 19 -18.5 29t-68.5 24
q-31 9 -55 16.5t-55 23t-51 33t-34.5 45t-14.5 59.5q1 82 66.5 127.5t159.5 45.5q82 0 140 -35.5t83 -93.5z" />
    <glyph glyph-name="Scircumflex" unicode="&#x15c;" horiz-adv-x="628" 
d="M160 817l149 129l149 -129l-76 -72l-73 73l-73 -73zM571 552l-143 -69q-44 83 -133 83q-84 0 -84 -53q0 -28 29.5 -47.5t118.5 -46.5q54 -16 91 -32.5t69 -41.5t47.5 -61t15.5 -84q0 -54 -24 -96t-63 -66.5t-84.5 -37t-94.5 -12.5q-102 0 -178 47t-108 136l137 77
q59 -113 159 -113q89 0 89 58q0 31 -30 53t-107 47q-40 13 -66 23t-61 29t-56 40.5t-36 55t-15 73.5q0 98 74.5 148t182.5 50q100 0 168 -44t102 -116z" />
    <glyph glyph-name="scircumflex" unicode="&#x15d;" horiz-adv-x="508" 
d="M103 669l149 129l149 -129l-76 -72l-73 73l-73 -73zM475 435l-131 -57q-14 24 -40 40.5t-57 16.5q-63 0 -63 -35q0 -20 21 -32.5t86 -29.5q95 -24 142.5 -63.5t47.5 -116.5q0 -84 -66.5 -128.5t-157.5 -44.5q-192 0 -245 140l131 66q39 -75 116 -75q64 0 64 45
q0 19 -18.5 29t-68.5 24q-31 9 -55 16.5t-55 23t-51 33t-34.5 45t-14.5 59.5q1 82 66.5 127.5t159.5 45.5q82 0 140 -35.5t83 -93.5z" />
    <glyph glyph-name="Scedilla" unicode="&#x15e;" horiz-adv-x="628" 
d="M582 200q0 -92 -64.5 -145t-157.5 -64l-16 -54q29 -6 42 -24.5t13 -39.5q0 -37 -30.5 -61.5t-84.5 -24.5q-62 0 -116 33l29 60q48 -24 77 -24q30 0 30 21q0 24 -50 34l17 79q-86 10 -149 56.5t-92 124.5l137 77q59 -113 159 -113q89 0 89 58q0 31 -30 53t-107 47
q-40 13 -66 23t-61 29t-56 40.5t-36 55t-15 73.5q0 98 74.5 148t182.5 50q100 0 168 -44t102 -116l-143 -69q-44 83 -133 83q-84 0 -84 -53q0 -28 29.5 -47.5t118.5 -46.5q54 -16 91 -32.5t69 -41.5t47.5 -61t15.5 -84z" />
    <glyph glyph-name="scedilla" unicode="&#x15f;" horiz-adv-x="508" 
d="M481 158q0 -73 -51.5 -116.5t-128.5 -53.5l-16 -52q29 -6 42 -24.5t13 -39.5q0 -38 -30.5 -62t-84.5 -24q-62 0 -116 33l29 60q48 -24 77 -24q30 0 30 21q0 24 -50 34l16 77q-153 16 -199 138l131 66q39 -75 116 -75q64 0 64 45q0 19 -18.5 29t-68.5 24q-31 9 -55 16.5
t-55 23t-51 33t-34.5 45t-14.5 59.5q1 82 66.5 127.5t159.5 45.5q82 0 140 -35.5t83 -93.5l-131 -57q-14 24 -40 40.5t-57 16.5q-63 0 -63 -35q0 -20 21 -32.5t86 -29.5q95 -24 142.5 -63.5t47.5 -116.5z" />
    <glyph glyph-name="Scaron" unicode="&#x160;" horiz-adv-x="628" 
d="M458 874l-149 -129l-149 129l76 72l73 -73l73 73zM571 552l-143 -69q-44 83 -133 83q-84 0 -84 -53q0 -28 29.5 -47.5t118.5 -46.5q54 -16 91 -32.5t69 -41.5t47.5 -61t15.5 -84q0 -54 -24 -96t-63 -66.5t-84.5 -37t-94.5 -12.5q-102 0 -178 47t-108 136l137 77
q59 -113 159 -113q89 0 89 58q0 31 -30 53t-107 47q-40 13 -66 23t-61 29t-56 40.5t-36 55t-15 73.5q0 98 74.5 148t182.5 50q100 0 168 -44t102 -116z" />
    <glyph glyph-name="scaron" unicode="&#x161;" horiz-adv-x="508" 
d="M401 726l-149 -129l-149 129l76 72l73 -73l73 73zM475 435l-131 -57q-14 24 -40 40.5t-57 16.5q-63 0 -63 -35q0 -20 21 -32.5t86 -29.5q95 -24 142.5 -63.5t47.5 -116.5q0 -84 -66.5 -128.5t-157.5 -44.5q-192 0 -245 140l131 66q39 -75 116 -75q64 0 64 45
q0 19 -18.5 29t-68.5 24q-31 9 -55 16.5t-55 23t-51 33t-34.5 45t-14.5 59.5q1 82 66.5 127.5t159.5 45.5q82 0 140 -35.5t83 -93.5z" />
    <glyph glyph-name="uni0162" unicode="&#x162;" horiz-adv-x="618" 
d="M30 700h558v-145h-194v-555h-42l-15 -51q29 -6 42 -24.5t13 -39.5q0 -37 -30.5 -61.5t-84.5 -24.5q-62 0 -116 33l29 60q48 -24 77 -24q30 0 30 21q0 24 -50 34l16 77h-39v555h-194v145z" />
    <glyph glyph-name="uni0163" unicode="&#x163;" horiz-adv-x="385" 
d="M363 140v-140h-63l-15 -51q29 -6 42 -24.5t13 -39.5q0 -37 -30.5 -61.5t-84.5 -24.5q-62 0 -116 33l29 60q48 -24 77 -24q30 0 30 21q0 24 -50 34l17 80q-129 20 -129 166v256h-56v125h56v109l160 30v-139h105v-125h-105v-201q0 -49 14.5 -66.5t55.5 -17.5h50z" />
    <glyph glyph-name="Tcaron" unicode="&#x164;" horiz-adv-x="618" 
d="M382 935l76 -72l-149 -129l-149 129l76 72l73 -73zM30 700h558v-145h-194v-555h-170v555h-194v145z" />
    <glyph glyph-name="tcaron" unicode="&#x165;" horiz-adv-x="385" 
d="M299 584v166h100v-68l-34 -98h-66zM243 425v-201q0 -49 14.5 -66.5t55.5 -17.5h50v-140h-109q-171 0 -171 169v256h-56v125h56v109l160 30v-139h105v-125h-105z" />
    <glyph glyph-name="Tbar" unicode="&#x166;" horiz-adv-x="618" 
d="M588 700v-145h-194v-142h121v-126h-121v-287h-170v287h-121v126h121v142h-194v145h558z" />
    <glyph glyph-name="tbar" unicode="&#x167;" horiz-adv-x="385" 
d="M313 140h50v-140h-109q-171 0 -171 169v71h-56v116h56v69h-56v125h56v109l160 30v-139h105v-125h-105v-69h107v-116h-107v-16q0 -49 14.5 -66.5t55.5 -17.5z" />
    <glyph glyph-name="Utilde" unicode="&#x168;" horiz-adv-x="760" 
d="M274 762l-52 58q53 68 113 68q21 0 36.5 -9t23 -19.5t18 -19.5t22.5 -9q27 0 55 33l52 -58q-19 -30 -49 -48.5t-61 -18.5q-27 0 -44 14.5t-29 28.5t-28 14q-32 0 -57 -34zM519 292v408h170v-419q0 -136 -82.5 -214.5t-226.5 -78.5t-225 78.5t-82 214.5l-2 419h170v-408
q0 -69 36.5 -107.5t102.5 -38.5t102.5 38.5t36.5 107.5z" />
    <glyph glyph-name="utilde" unicode="&#x169;" horiz-adv-x="620" 
d="M204 612l-52 58q53 68 113 68q21 0 36.5 -9t23 -19.5t18 -19.5t22.5 -9q27 0 55 33l52 -58q-19 -30 -49 -48.5t-61 -18.5q-27 0 -44 14.5t-29 28.5t-28 14q-32 0 -57 -34zM406 225v325h160l-2 -331q-1 -102 -70.5 -166t-183.5 -64t-185 64t-71 166v331h160v-325
q0 -42 26.5 -68t69.5 -26t69.5 26t26.5 68z" />
    <glyph glyph-name="Umacron" unicode="&#x16a;" horiz-adv-x="760" 
d="M519 760h-278v97h278v-97zM519 292v408h170v-419q0 -136 -82.5 -214.5t-226.5 -78.5t-225 78.5t-82 214.5l-2 419h170v-408q0 -69 36.5 -107.5t102.5 -38.5t102.5 38.5t36.5 107.5z" />
    <glyph glyph-name="umacron" unicode="&#x16b;" horiz-adv-x="620" 
d="M449 610h-278v97h278v-97zM406 225v325h160l-2 -331q-1 -102 -70.5 -166t-183.5 -64t-185 64t-71 166v331h160v-325q0 -42 26.5 -68t69.5 -26t69.5 26t26.5 68z" />
    <glyph glyph-name="Ubreve" unicode="&#x16c;" horiz-adv-x="760" 
d="M380 732q-61 0 -98.5 38t-43.5 105l104 15q2 -63 38 -63t38 63l104 -15q-6 -67 -43.5 -105t-98.5 -38zM519 292v408h170v-419q0 -136 -82.5 -214.5t-226.5 -78.5t-225 78.5t-82 214.5l-2 419h170v-408q0 -69 36.5 -107.5t102.5 -38.5t102.5 38.5t36.5 107.5z" />
    <glyph glyph-name="ubreve" unicode="&#x16d;" horiz-adv-x="620" 
d="M310 582q-61 0 -98.5 38t-43.5 105l104 15q2 -63 38 -63t38 63l104 -15q-6 -67 -43.5 -105t-98.5 -38zM406 225v325h160l-2 -331q-1 -102 -70.5 -166t-183.5 -64t-185 64t-71 166v331h160v-325q0 -42 26.5 -68t69.5 -26t69.5 26t26.5 68z" />
    <glyph glyph-name="Uring" unicode="&#x16e;" horiz-adv-x="760" 
d="M380 727q-52 0 -86.5 34t-34.5 84q0 51 34.5 85t86.5 34t86.5 -34t34.5 -85q0 -50 -34.5 -84t-86.5 -34zM380 792q21 0 35.5 15.5t14.5 37.5t-14.5 37.5t-35.5 15.5t-35.5 -15.5t-14.5 -37.5t14.5 -37.5t35.5 -15.5zM519 292v408h170v-419q0 -136 -82.5 -214.5
t-226.5 -78.5t-225 78.5t-82 214.5l-2 419h170v-408q0 -69 36.5 -107.5t102.5 -38.5t102.5 38.5t36.5 107.5z" />
    <glyph glyph-name="uring" unicode="&#x16f;" horiz-adv-x="620" 
d="M310 577q-52 0 -86.5 34t-34.5 84q0 51 34.5 85t86.5 34t86.5 -34t34.5 -85q0 -50 -34.5 -84t-86.5 -34zM310 642q21 0 35.5 15.5t14.5 37.5t-14.5 37.5t-35.5 15.5t-35.5 -15.5t-14.5 -37.5t14.5 -37.5t35.5 -15.5zM406 225v325h160l-2 -331q-1 -102 -70.5 -166
t-183.5 -64t-185 64t-71 166v331h160v-325q0 -42 26.5 -68t69.5 -26t69.5 26t26.5 68z" />
    <glyph glyph-name="Uhungarumlaut" unicode="&#x170;" horiz-adv-x="760" 
d="M330 920h100l-83 -170h-83zM461 920h100l-83 -170h-83zM519 292v408h170v-419q0 -136 -82.5 -214.5t-226.5 -78.5t-225 78.5t-82 214.5l-2 419h170v-408q0 -69 36.5 -107.5t102.5 -38.5t102.5 38.5t36.5 107.5z" />
    <glyph glyph-name="uhungarumlaut" unicode="&#x171;" horiz-adv-x="620" 
d="M260 770h100l-83 -170h-83zM391 770h100l-83 -170h-83zM406 225v325h160l-2 -331q-1 -102 -70.5 -166t-183.5 -64t-185 64t-71 166v331h160v-325q0 -42 26.5 -68t69.5 -26t69.5 26t26.5 68z" />
    <glyph glyph-name="Uogonek" unicode="&#x172;" horiz-adv-x="760" 
d="M519 292v408h170v-419q0 -136 -82.5 -214.5t-226.5 -78.5q-39 -16 -62.5 -45.5t-23.5 -54.5q0 -44 40 -44q30 0 48 36l64 -26q-32 -94 -134 -94q-53 0 -84.5 30.5t-31.5 78.5q0 79 81 131q-97 25 -150 98.5t-54 182.5l-2 419h170v-408q0 -69 36.5 -107.5t102.5 -38.5
t102.5 38.5t36.5 107.5z" />
    <glyph glyph-name="uogonek" unicode="&#x173;" horiz-adv-x="620" 
d="M406 225v325h160l-2 -331q-1 -94 -60.5 -156t-158.5 -72q-32 -18 -51.5 -44.5t-19.5 -48.5q0 -44 40 -44q30 0 48 36l64 -26q-32 -94 -134 -94q-53 0 -84.5 30.5t-31.5 78.5q0 67 62 118q-84 18 -134 78t-50 144v331h160v-325q0 -42 26.5 -68t69.5 -26t69.5 26t26.5 68z
" />
    <glyph glyph-name="Wcircumflex" unicode="&#x174;" horiz-adv-x="1022" 
d="M362 806l149 129l149 -129l-76 -72l-73 73l-73 -73zM831 700h183v-10l-241 -690h-119l-143 419l-143 -419h-119l-241 690v10h183l126 -388l125 388h138l125 -388z" />
    <glyph glyph-name="wcircumflex" unicode="&#x175;" horiz-adv-x="826" 
d="M264 656l149 129l149 -129l-76 -72l-73 73l-73 -73zM558 263l92 287h167v-5l-197 -545h-95l-112 274l-113 -274h-94l-197 545v5h167l92 -287l109 287h72z" />
    <glyph glyph-name="Ycircumflex" unicode="&#x176;" horiz-adv-x="664" 
d="M183 806l149 129l149 -129l-76 -72l-73 73l-73 -73zM331 449l140 251h191v-6l-246 -410v-284h-170v284l-244 410v6h191z" />
    <glyph glyph-name="ycircumflex" unicode="&#x177;" horiz-adv-x="544" 
d="M346 584l-73 73l-73 -73l-76 72l149 129l149 -129zM275 239l95 311h166v-6l-200 -607q-29 -89 -71 -132.5t-97.5 -47.5t-128.5 19l36 129q45 -14 73.5 -2.5t40.5 53.5l13 44l-196 544v6h171z" />
    <glyph glyph-name="Ydieresis" unicode="&#x178;" horiz-adv-x="664" 
d="M243 746q-29 0 -48.5 20t-19.5 48t19.5 48t48.5 20t48.5 -20t19.5 -48t-19.5 -48t-48.5 -20zM421 746q-29 0 -48.5 20t-19.5 48t19.5 48t48.5 20t48.5 -20t19.5 -48t-19.5 -48t-48.5 -20zM331 449l140 251h191v-6l-246 -410v-284h-170v284l-244 410v6h191z" />
    <glyph glyph-name="Zacute" unicode="&#x179;" horiz-adv-x="624" 
d="M233 750l98 150h183l-145 -150h-136zM45 700h539v-10l-301 -545h301v-145h-561v10l301 545h-279v145z" />
    <glyph glyph-name="zacute" unicode="&#x17a;" horiz-adv-x="498" 
d="M184 600l98 150h183l-145 -150h-136zM33 550h440v-10l-220 -405h223v-135h-454v10l220 405h-209v135z" />
    <glyph glyph-name="Zdotaccent" unicode="&#x17b;" horiz-adv-x="624" 
d="M311 746q-29 0 -48.5 20t-19.5 48t19.5 48t48.5 20t48.5 -20t19.5 -48t-19.5 -48t-48.5 -20zM45 700h539v-10l-301 -545h301v-145h-561v10l301 545h-279v145z" />
    <glyph glyph-name="zdotaccent" unicode="&#x17c;" horiz-adv-x="498" 
d="M262 596q-28 0 -48 20t-20 48t20 48t48 20t48 -20t20 -48t-20 -48t-48 -20zM33 550h440v-10l-220 -405h223v-135h-454v10l220 405h-209v135z" />
    <glyph glyph-name="Zcaron" unicode="&#x17d;" horiz-adv-x="624" 
d="M460 863l-149 -129l-149 129l76 72l73 -73l73 73zM45 700h539v-10l-301 -545h301v-145h-561v10l301 545h-279v145z" />
    <glyph glyph-name="zcaron" unicode="&#x17e;" horiz-adv-x="498" 
d="M411 713l-149 -129l-149 129l76 72l73 -73l73 73zM33 550h440v-10l-220 -405h223v-135h-454v10l220 405h-209v135z" />
    <glyph glyph-name="uni018F" unicode="&#x18f;" horiz-adv-x="778" 
d="M379 711q158 0 260.5 -102t102.5 -259t-102.5 -259.5t-260.5 -102.5q-168 0 -265 121.5t-74 309.5h520q-19 64 -68.5 101.5t-115.5 37.5q-40 0 -83 -20t-71 -52l-112 99q46 57 119.5 91.5t149.5 34.5zM376 146q70 0 120 39.5t66 106.5h-364q10 -66 58.5 -106t119.5 -40z
" />
    <glyph glyph-name="florin" unicode="&#x192;" horiz-adv-x="418" 
d="M433 741l-35 -128q-34 18 -60.5 9t-29.5 -51l-6 -98h87v-126h-96l-24 -378q-9 -131 -79 -174t-205 16l35 128q34 -18 61 -9t30 51l23 366h-77v126h85l7 110q17 268 284 158z" />
    <glyph glyph-name="uni01CD" unicode="&#x1cd;" horiz-adv-x="698" 
d="M422 935l76 -72l-149 -129l-149 129l76 72l73 -73zM287 700h124l294 -692v-8h-175l-42 109h-278l-42 -109h-175v8zM349 469l-87 -225h174z" />
    <glyph glyph-name="uni01CE" unicode="&#x1ce;" horiz-adv-x="589" 
d="M375 796l76 -72l-149 -129l-149 129l76 72l73 -73zM281 561q257 0 257 -244v-317h-163v25q-54 -35 -127 -35q-97 0 -160 53.5t-63 136.5t63 136.5t160 53.5q72 0 126 -35q-8 96 -121 96q-78 0 -155 -44l-52 110q41 25 104.5 44.5t130.5 19.5zM283 105q44 0 71 21.5
t27 55.5t-27 55.5t-71 21.5q-43 0 -70.5 -21.5t-27.5 -55.5t27.5 -55.5t70.5 -21.5z" />
    <glyph glyph-name="uni01CF" unicode="&#x1cf;" horiz-adv-x="322" 
d="M310 863l-149 -129l-149 129l76 72l73 -73l73 73zM76 0v700h170v-700h-170z" />
    <glyph glyph-name="uni01D0" unicode="&#x1d0;" horiz-adv-x="282" 
d="M290 713l-149 -129l-149 129l76 72l73 -73l73 73zM221 0h-160v550h160v-550z" />
    <glyph glyph-name="uni01D1" unicode="&#x1d1;" horiz-adv-x="796" 
d="M547 875l-149 -129l-149 129l76 72l73 -73l73 73zM398 -12q-154 0 -258 103.5t-104 258.5t104 258.5t258 103.5t258 -103.5t104 -258.5t-104 -258.5t-258 -103.5zM398 148q82 0 137 57.5t55 144.5t-55 144.5t-137 57.5t-137 -57.5t-55 -144.5t55 -144.5t137 -57.5z" />
    <glyph glyph-name="uni01D2" unicode="&#x1d2;" horiz-adv-x="622" 
d="M460 726l-149 -129l-149 129l76 72l73 -73l73 73zM311 -13q-123 0 -202.5 81t-79.5 207t79.5 207t202.5 81t202.5 -81t79.5 -207t-79.5 -207t-202.5 -81zM311 131q54 0 90.5 41t36.5 103t-36.5 103t-90.5 41t-90.5 -41t-36.5 -103t36.5 -103t90.5 -41z" />
    <glyph glyph-name="uni01D3" unicode="&#x1d3;" horiz-adv-x="760" 
d="M529 863l-149 -129l-149 129l76 72l73 -73l73 73zM519 292v408h170v-419q0 -136 -82.5 -214.5t-226.5 -78.5t-225 78.5t-82 214.5l-2 419h170v-408q0 -69 36.5 -107.5t102.5 -38.5t102.5 38.5t36.5 107.5z" />
    <glyph glyph-name="uni01D4" unicode="&#x1d4;" horiz-adv-x="620" 
d="M459 713l-149 -129l-149 129l76 72l73 -73l73 73zM406 225v325h160l-2 -331q-1 -102 -70.5 -166t-183.5 -64t-185 64t-71 166v331h160v-325q0 -42 26.5 -68t69.5 -26t69.5 26t26.5 68z" />
    <glyph glyph-name="uni01D5" unicode="&#x1d5;" horiz-adv-x="760" 
d="M519 942h-278v97h278v-97zM291 746q-29 0 -48.5 20t-19.5 48t19.5 48t48.5 20t48.5 -20t19.5 -48t-19.5 -48t-48.5 -20zM469 746q-29 0 -48.5 20t-19.5 48t19.5 48t48.5 20t48.5 -20t19.5 -48t-19.5 -48t-48.5 -20zM519 292v408h170v-419q0 -136 -82.5 -214.5
t-226.5 -78.5t-225 78.5t-82 214.5l-2 419h170v-408q0 -69 36.5 -107.5t102.5 -38.5t102.5 38.5t36.5 107.5z" />
    <glyph glyph-name="uni01D6" unicode="&#x1d6;" horiz-adv-x="620" 
d="M449 792h-278v97h278v-97zM221 596q-29 0 -48.5 20t-19.5 48t19.5 48t48.5 20t48.5 -20t19.5 -48t-19.5 -48t-48.5 -20zM399 596q-29 0 -48.5 20t-19.5 48t19.5 48t48.5 20t48.5 -20t19.5 -48t-19.5 -48t-48.5 -20zM406 225v325h160l-2 -331q-1 -102 -70.5 -166
t-183.5 -64t-185 64t-71 166v331h160v-325q0 -42 26.5 -68t69.5 -26t69.5 26t26.5 68z" />
    <glyph glyph-name="uni01D7" unicode="&#x1d7;" horiz-adv-x="760" 
d="M302 932l98 150h183l-145 -150h-136zM291 746q-29 0 -48.5 20t-19.5 48t19.5 48t48.5 20t48.5 -20t19.5 -48t-19.5 -48t-48.5 -20zM469 746q-29 0 -48.5 20t-19.5 48t19.5 48t48.5 20t48.5 -20t19.5 -48t-19.5 -48t-48.5 -20zM519 292v408h170v-419q0 -136 -82.5 -214.5
t-226.5 -78.5t-225 78.5t-82 214.5l-2 419h170v-408q0 -69 36.5 -107.5t102.5 -38.5t102.5 38.5t36.5 107.5z" />
    <glyph glyph-name="uni01D8" unicode="&#x1d8;" horiz-adv-x="620" 
d="M232 782l98 150h183l-145 -150h-136zM221 596q-29 0 -48.5 20t-19.5 48t19.5 48t48.5 20t48.5 -20t19.5 -48t-19.5 -48t-48.5 -20zM399 596q-29 0 -48.5 20t-19.5 48t19.5 48t48.5 20t48.5 -20t19.5 -48t-19.5 -48t-48.5 -20zM406 225v325h160l-2 -331
q-1 -102 -70.5 -166t-183.5 -64t-185 64t-71 166v331h160v-325q0 -42 26.5 -68t69.5 -26t69.5 26t26.5 68z" />
    <glyph glyph-name="uni01D9" unicode="&#x1d9;" horiz-adv-x="760" 
d="M529 1045l-149 -129l-149 129l76 72l73 -73l73 73zM291 746q-29 0 -48.5 20t-19.5 48t19.5 48t48.5 20t48.5 -20t19.5 -48t-19.5 -48t-48.5 -20zM469 746q-29 0 -48.5 20t-19.5 48t19.5 48t48.5 20t48.5 -20t19.5 -48t-19.5 -48t-48.5 -20zM519 292v408h170v-419
q0 -136 -82.5 -214.5t-226.5 -78.5t-225 78.5t-82 214.5l-2 419h170v-408q0 -69 36.5 -107.5t102.5 -38.5t102.5 38.5t36.5 107.5z" />
    <glyph glyph-name="uni01DA" unicode="&#x1da;" horiz-adv-x="620" 
d="M459 895l-149 -129l-149 129l76 72l73 -73l73 73zM221 596q-29 0 -48.5 20t-19.5 48t19.5 48t48.5 20t48.5 -20t19.5 -48t-19.5 -48t-48.5 -20zM399 596q-29 0 -48.5 20t-19.5 48t19.5 48t48.5 20t48.5 -20t19.5 -48t-19.5 -48t-48.5 -20zM406 225v325h160l-2 -331
q-1 -102 -70.5 -166t-183.5 -64t-185 64t-71 166v331h160v-325q0 -42 26.5 -68t69.5 -26t69.5 26t26.5 68z" />
    <glyph glyph-name="uni01DB" unicode="&#x1db;" horiz-adv-x="760" 
d="M183 1082h183l98 -150h-136zM291 746q-29 0 -48.5 20t-19.5 48t19.5 48t48.5 20t48.5 -20t19.5 -48t-19.5 -48t-48.5 -20zM469 746q-29 0 -48.5 20t-19.5 48t19.5 48t48.5 20t48.5 -20t19.5 -48t-19.5 -48t-48.5 -20zM519 292v408h170v-419q0 -136 -82.5 -214.5
t-226.5 -78.5t-225 78.5t-82 214.5l-2 419h170v-408q0 -69 36.5 -107.5t102.5 -38.5t102.5 38.5t36.5 107.5z" />
    <glyph glyph-name="uni01DC" unicode="&#x1dc;" horiz-adv-x="620" 
d="M113 932h183l98 -150h-136zM221 596q-29 0 -48.5 20t-19.5 48t19.5 48t48.5 20t48.5 -20t19.5 -48t-19.5 -48t-48.5 -20zM399 596q-29 0 -48.5 20t-19.5 48t19.5 48t48.5 20t48.5 -20t19.5 -48t-19.5 -48t-48.5 -20zM406 225v325h160l-2 -331q-1 -102 -70.5 -166
t-183.5 -64t-185 64t-71 166v331h160v-325q0 -42 26.5 -68t69.5 -26t69.5 26t26.5 68z" />
    <glyph glyph-name="Gcaron" unicode="&#x1e6;" horiz-adv-x="778" 
d="M472 946l76 -72l-149 -129l-149 129l76 72l73 -73zM413 419h325q23 -188 -74 -309.5t-265 -121.5q-158 0 -260.5 102.5t-102.5 259.5t102.5 259t260.5 102q76 0 149.5 -34.5t119.5 -91.5l-112 -99q-28 32 -71 52t-83 20q-84 0 -138.5 -58t-54.5 -150t54.5 -148t138.5 -56
q68 0 117 38.5t60 101.5h-166v133z" />
    <glyph glyph-name="gcaron" unicode="&#x1e7;" horiz-adv-x="607" 
d="M350 795l76 -72l-149 -129l-149 129l76 72l73 -73zM601 557v-145q-55 0 -93 -11q8 -30 8 -61q0 -95 -67.5 -157t-171.5 -62q-33 0 -67 8q-13 -13 -13 -26q0 -26 64 -26h101q204 0 204 -167q0 -86 -66 -135t-193 -49q-179 0 -306 72l64 125q111 -53 242 -53q99 0 99 35
q0 18 -15 25t-56 7h-107q-93 0 -145.5 35.5t-52.5 96.5q0 73 69 120q-61 59 -61 151q0 96 67.5 158t171.5 62q95 0 160 -52q48 49 164 49zM277 258q37 0 60.5 23t23.5 59t-23.5 59t-60.5 23t-60.5 -23t-23.5 -59t23.5 -59t60.5 -23z" />
    <glyph glyph-name="uni01EA" unicode="&#x1ea;" horiz-adv-x="796" 
d="M394 -12q-37 -17 -59.5 -45.5t-22.5 -52.5q0 -44 40 -44q30 0 48 36l64 -26q-32 -94 -134 -94q-53 0 -84.5 30.5t-31.5 78.5q0 78 81 131q-115 32 -187 126.5t-72 221.5q0 155 104 258.5t258 103.5t258 -103.5t104 -258.5t-104 -258.5t-258 -103.5h-4zM206 350
q0 -87 55 -144.5t137 -57.5t137 57.5t55 144.5t-55 144.5t-137 57.5t-137 -57.5t-55 -144.5z" />
    <glyph glyph-name="uni01EB" unicode="&#x1eb;" horiz-adv-x="622" 
d="M366 -8q-37 -17 -59 -45.5t-22 -52.5q0 -44 40 -44q30 0 48 36l64 -26q-32 -94 -134 -94q-53 0 -84.5 30.5t-31.5 78.5q0 67 63 118q-100 20 -160.5 96.5t-60.5 185.5q0 126 79.5 207t202.5 81t202.5 -81t79.5 -207q0 -112 -62.5 -189t-164.5 -94zM184 275
q0 -62 36.5 -103t90.5 -41t90.5 41t36.5 103t-36.5 103t-90.5 41t-90.5 -41t-36.5 -103z" />
    <glyph glyph-name="Aringacute" unicode="&#x1fa;" horiz-adv-x="698" 
d="M359 1140h183l-145 -150h-136zM349 727q-52 0 -86.5 34t-34.5 84q0 51 34.5 85t86.5 34t86.5 -34t34.5 -85q0 -50 -34.5 -84t-86.5 -34zM349 898q-21 0 -35.5 -15.5t-14.5 -37.5t14.5 -37.5t35.5 -15.5t35.5 15.5t14.5 37.5t-14.5 37.5t-35.5 15.5zM287 700h124l294 -692
v-8h-175l-42 109h-278l-42 -109h-175v8zM349 469l-87 -225h174z" />
    <glyph glyph-name="aringacute" unicode="&#x1fb;" horiz-adv-x="589" 
d="M312 1001h183l-145 -150h-136zM302 588q-52 0 -86.5 34t-34.5 84q0 51 34.5 85t86.5 34t86.5 -34t34.5 -85q0 -50 -34.5 -84t-86.5 -34zM302 759q-21 0 -35.5 -15.5t-14.5 -37.5t14.5 -37.5t35.5 -15.5t35.5 15.5t14.5 37.5t-14.5 37.5t-35.5 15.5zM281 561
q257 0 257 -244v-317h-163v25q-54 -35 -127 -35q-97 0 -160 53.5t-63 136.5t63 136.5t160 53.5q72 0 126 -35q-8 96 -121 96q-78 0 -155 -44l-52 110q41 25 104.5 44.5t130.5 19.5zM283 105q44 0 71 21.5t27 55.5t-27 55.5t-71 21.5q-43 0 -70.5 -21.5t-27.5 -55.5
t27.5 -55.5t70.5 -21.5z" />
    <glyph glyph-name="AEacute" unicode="&#x1fc;" horiz-adv-x="1072" 
d="M567 900h183l-145 -150h-136zM1007 700v-145h-331v-129h271v-139h-271v-142h331v-145h-501v109h-273l-77 -109h-193v9l506 691h538zM506 493l-177 -249h177v249z" />
    <glyph glyph-name="aeacute" unicode="&#x1fd;" horiz-adv-x="972" 
d="M510 750h183l-145 -150h-136zM671 560q135 0 211 -104.5t58 -241.5h-389q15 -38 46.5 -60t72.5 -22q64 0 103 53l122 -84q-81 -111 -224 -111q-71 0 -133 32v-22h-163v25q-54 -35 -127 -35q-97 0 -160 53.5t-63 136.5t63 136.5t160 53.5q72 0 126 -35q-8 96 -121 96
q-78 0 -155 -44l-52 110q41 25 104.5 44.5t130.5 19.5q139 0 203 -71q76 70 187 70zM670 416q-45 0 -77.5 -24.5t-44.5 -67.5h239q-10 40 -40.5 66t-76.5 26zM283 105q44 0 71 21.5t27 55.5t-27 55.5t-71 21.5q-43 0 -70.5 -21.5t-27.5 -55.5t27.5 -55.5t70.5 -21.5z" />
    <glyph glyph-name="Oslashacute" unicode="&#x1fe;" horiz-adv-x="796" 
d="M418 912h183l-145 -150h-136zM752 700l-82 -106q90 -103 90 -244q0 -155 -104 -258.5t-258 -103.5q-89 0 -165 37l-20 -25h-169l82 106q-90 103 -90 244q0 155 104 258.5t258 103.5q92 0 166 -38l20 26h168zM206 350q0 -57 27 -106l229 297q-31 11 -64 11
q-82 0 -137 -57.5t-55 -144.5zM398 148q82 0 137 57.5t55 144.5q0 56 -26 105l-229 -297q33 -10 63 -10z" />
    <glyph glyph-name="oslashacute" unicode="&#x1ff;" horiz-adv-x="622" 
d="M331 763h183l-145 -150h-136zM590 550l-63 -82q66 -79 66 -193q0 -126 -79.5 -207t-202.5 -81q-73 0 -131 29l-13 -16h-133l62 81q-67 80 -67 194q0 126 79.5 207t202.5 81q72 0 134 -30l13 17h132zM184 275q0 -35 12 -64l156 201q-18 7 -41 7q-54 0 -90.5 -41
t-36.5 -103zM311 131q54 0 90.5 41t36.5 103q0 35 -12 62l-153 -200q18 -6 38 -6z" />
    <glyph glyph-name="uni0218" unicode="&#x218;" horiz-adv-x="628" 
d="M571 552l-143 -69q-44 83 -133 83q-84 0 -84 -53q0 -28 29.5 -47.5t118.5 -46.5q54 -16 91 -32.5t69 -41.5t47.5 -61t15.5 -84q0 -54 -24 -96t-63 -66.5t-84.5 -37t-94.5 -12.5q-102 0 -178 47t-108 136l137 77q59 -113 159 -113q89 0 89 58q0 31 -30 53t-107 47
q-40 13 -66 23t-61 29t-56 40.5t-36 55t-15 73.5q0 98 74.5 148t182.5 50q100 0 168 -44t102 -116zM259 -240v186h120v-76l-41 -110h-79z" />
    <glyph glyph-name="uni0219" unicode="&#x219;" horiz-adv-x="508" 
d="M475 435l-131 -57q-14 24 -40 40.5t-57 16.5q-63 0 -63 -35q0 -20 21 -32.5t86 -29.5q95 -24 142.5 -63.5t47.5 -116.5q0 -84 -66.5 -128.5t-157.5 -44.5q-192 0 -245 140l131 66q39 -75 116 -75q64 0 64 45q0 19 -18.5 29t-68.5 24q-31 9 -55 16.5t-55 23t-51 33
t-34.5 45t-14.5 59.5q1 82 66.5 127.5t159.5 45.5q82 0 140 -35.5t83 -93.5zM200 -241v186h120v-76l-41 -110h-79z" />
    <glyph glyph-name="uni021A" unicode="&#x21a;" horiz-adv-x="618" 
d="M30 700h558v-145h-194v-555h-170v555h-194v145zM331 -228h-79v186h120v-76z" />
    <glyph glyph-name="uni021B" unicode="&#x21b;" horiz-adv-x="385" 
d="M313 140h50v-140h-109q-171 0 -171 169v256h-56v125h56v109l160 30v-139h105v-125h-105v-201q0 -49 14.5 -66.5t55.5 -17.5zM279 -228h-79v186h120v-76z" />
    <glyph glyph-name="uni0232" unicode="&#x232;" horiz-adv-x="664" 
d="M471 760h-278v97h278v-97zM331 449l140 251h191v-6l-246 -410v-284h-170v284l-244 410v6h191z" />
    <glyph glyph-name="uni0233" unicode="&#x233;" horiz-adv-x="544" 
d="M134 707h278v-97h-278v97zM275 239l95 311h166v-6l-200 -607q-29 -89 -71 -132.5t-97.5 -47.5t-128.5 19l36 129q45 -14 73.5 -2.5t40.5 53.5l13 44l-196 544v6h171z" />
    <glyph glyph-name="uni0237" unicode="&#x237;" horiz-adv-x="282" 
d="M-105 -208l58 117q35 -15 60 -15q48 0 48 65v591h160v-617q0 -92 -49.5 -139.5t-124.5 -47.5q-73 0 -152 46z" />
    <glyph glyph-name="uni0259" unicode="&#x259;" horiz-adv-x="607" 
d="M301 560q120 0 198.5 -81.5t78.5 -203.5q0 -123 -78.5 -204t-198.5 -81q-135 0 -211 104.5t-58 241.5h389q-15 38 -46.5 60t-72.5 22q-64 0 -103 -53l-122 84q81 111 224 111zM302 134q45 0 77.5 24.5t44.5 67.5h-239q10 -40 40.5 -66t76.5 -26z" />
    <glyph glyph-name="circumflex" unicode="&#x2c6;" horiz-adv-x="513" 
d="M90 656l149 129l149 -129l-76 -72l-73 73l-73 -73z" />
    <glyph glyph-name="caron" unicode="&#x2c7;" horiz-adv-x="513" 
d="M388 713l-149 -129l-149 129l76 72l73 -73l73 73z" />
    <glyph glyph-name="breve" unicode="&#x2d8;" horiz-adv-x="526" 
d="M283 740l104 -15q-6 -67 -43.5 -105t-98.5 -38t-98.5 38t-43.5 105l104 15q2 -63 38 -63t38 63z" />
    <glyph glyph-name="dotaccent" unicode="&#x2d9;" horiz-adv-x="428" 
d="M191 596q-29 0 -48.5 20t-19.5 48t19.5 48t48.5 20t48.5 -20t19.5 -48t-19.5 -48t-48.5 -20z" />
    <glyph glyph-name="ring" unicode="&#x2da;" horiz-adv-x="478" 
d="M226 577q-52 0 -86.5 34t-34.5 84q0 51 34.5 85t86.5 34t86.5 -34t34.5 -85q0 -50 -34.5 -84t-86.5 -34zM226 642q21 0 35.5 15.5t14.5 37.5t-14.5 37.5t-35.5 15.5t-35.5 -15.5t-14.5 -37.5t14.5 -37.5t35.5 -15.5z" />
    <glyph glyph-name="ogonek" unicode="&#x2db;" horiz-adv-x="424" 
d="M175 23l88 -21q-39 -16 -62.5 -45.5t-23.5 -54.5q0 -44 40 -44q30 0 48 36l64 -26q-32 -94 -134 -94q-53 0 -84.5 30.5t-31.5 78.5q0 44 27.5 81t68.5 59z" />
    <glyph glyph-name="tilde" unicode="&#x2dc;" horiz-adv-x="527" 
d="M139 612l-52 58q53 68 113 68q21 0 36.5 -9t23 -19.5t18 -19.5t22.5 -9q28 0 55 33l52 -58q-19 -30 -49 -48.5t-61 -18.5q-27 0 -44 14.5t-29 28.5t-28 14q-32 0 -57 -34z" />
    <glyph glyph-name="hungarumlaut" unicode="&#x2dd;" horiz-adv-x="547" 
d="M201 770h100l-83 -170h-83zM332 770h100l-83 -170h-83z" />
    <glyph glyph-name="gravecomb" unicode="&#x300;" 
d="M-439 750h183l98 -150h-136z" />
    <glyph glyph-name="acutecomb" unicode="&#x301;" 
d="M-371 600l98 150h183l-145 -150h-136z" />
    <glyph glyph-name="uni0302" unicode="&#x302;" 
d="M-388 656l149 129l149 -129l-76 -72l-73 73l-73 -73z" />
    <glyph glyph-name="tildecomb" unicode="&#x303;" 
d="M-355 612l-52 58q53 68 113 68q21 0 36.5 -9t23 -19.5t18 -19.5t22.5 -9q28 0 55 33l52 -58q-19 -30 -49 -48.5t-61 -18.5q-27 0 -44 14.5t-29 28.5t-28 14q-32 0 -57 -34z" />
    <glyph glyph-name="uni0304" unicode="&#x304;" 
d="M-89 610h-278v97h278v-97z" />
    <glyph glyph-name="uni0306" unicode="&#x306;" 
d="M-208 740l104 -15q-6 -67 -43.5 -105t-98.5 -38t-98.5 38t-43.5 105l104 15q2 -63 38 -63t38 63z" />
    <glyph glyph-name="uni0307" unicode="&#x307;" 
d="M-190 596q-28 0 -48 20t-20 48t20 48t48 20t48 -20t20 -48t-20 -48t-48 -20z" />
    <glyph glyph-name="uni0308" unicode="&#x308;" 
d="M-343 596q-29 0 -48.5 20t-19.5 48t19.5 48t48.5 20t48.5 -20t19.5 -48t-19.5 -48t-48.5 -20zM-165 596q-29 0 -48.5 20t-19.5 48t19.5 48t48.5 20t48.5 -20t19.5 -48t-19.5 -48t-48.5 -20z" />
    <glyph glyph-name="uni030A" unicode="&#x30a;" 
d="M-216 577q-52 0 -86.5 34t-34.5 84q0 51 34.5 85t86.5 34t86.5 -34t34.5 -85q0 -50 -34.5 -84t-86.5 -34zM-216 642q21 0 35.5 15.5t14.5 37.5t-14.5 37.5t-35.5 15.5t-35.5 -15.5t-14.5 -37.5t14.5 -37.5t35.5 -15.5z" />
    <glyph glyph-name="uni030B" unicode="&#x30b;" 
d="M-402 770h100l-83 -170h-83zM-271 770h100l-83 -170h-83z" />
    <glyph glyph-name="uni030C" unicode="&#x30c;" 
d="M-90 713l-149 -129l-149 129l76 72l73 -73l73 73z" />
    <glyph glyph-name="uni0312" unicode="&#x312;" 
d="M-119 759l-60 -159h-131l75 159h116z" />
    <glyph glyph-name="uni0326" unicode="&#x326;" 
d="M-329 -228v186h120v-76l-41 -110h-79z" />
    <glyph glyph-name="uni0327" unicode="&#x327;" 
d="M-155 9l-18 -60q29 -6 42 -24.5t13 -39.5q0 -37 -30.5 -61.5t-84.5 -24.5q-62 0 -116 33l29 60q48 -24 77 -24q30 0 30 21q0 24 -50 34l20 94h88v-8z" />
    <glyph glyph-name="uni0328" unicode="&#x328;" 
d="M-224 23l88 -21q-39 -16 -62.5 -45.5t-23.5 -54.5q0 -44 40 -44q30 0 48 36l64 -26q-32 -94 -134 -94q-53 0 -84.5 30.5t-31.5 78.5q0 44 27.5 81t68.5 59z" />
    <glyph glyph-name="uni0335" unicode="&#x335;" 
d="M-333 286v126h332v-126h-332z" />
    <glyph glyph-name="uni0336" unicode="&#x336;" 
d="M-641 226v116h641v-116h-641z" />
    <glyph glyph-name="uni0337" unicode="&#x337;" 
d="M-348 320l347 280v-160l-347 -280v160z" />
    <glyph glyph-name="uni0338" unicode="&#x338;" 
d="M-709 0l540 700h168l-539 -700h-169z" />
    <glyph glyph-name="uni0394" unicode="&#x394;" horiz-adv-x="680" 
d="M257 700h166l264 -700h-694zM340 502l-127 -364h254z" />
    <glyph glyph-name="uni03A9" unicode="&#x3a9;" horiz-adv-x="779" 
d="M743 370q0 -145 -108 -230h94v-140h-303v140q65 21 106 79.5t41 130.5q0 86 -51.5 141t-131.5 55q-81 0 -132.5 -55t-51.5 -141q0 -72 41 -130.5t106 -79.5v-140h-303v140h94q-108 85 -108 230t99.5 240.5t254.5 95.5t254 -95.5t99 -240.5z" />
    <glyph glyph-name="uni03BC" unicode="&#x3bc;" horiz-adv-x="688" 
d="M583 140h83v-140h-179v19q-42 -24 -101 -24q-105 0 -165 72v-267h-160v750h160v-309q0 -51 28 -81.5t73 -30.5t73 30.5t28 81.5v309h160v-410z" />
    <glyph glyph-name="pi" unicode="&#x3c0;" horiz-adv-x="654" 
d="M632 550v-140h-87v-221q0 -27 11 -38t39 -11h37v-140h-61q-95 0 -140.5 38t-45.5 121v251h-114v-410h-160v410h-84v140h605z" />
    <glyph glyph-name="uni0400" unicode="&#x400;" horiz-adv-x="642" 
d="M145 900h183l98 -150h-136zM577 700v-145h-331v-129h271v-139h-271v-142h331v-145h-501v700h501z" />
    <glyph glyph-name="uni0401" unicode="&#x401;" horiz-adv-x="642" 
d="M251 746q-29 0 -48.5 20t-19.5 48t19.5 48t48.5 20t48.5 -20t19.5 -48t-19.5 -48t-48.5 -20zM429 746q-29 0 -48.5 20t-19.5 48t19.5 48t48.5 20t48.5 -20t19.5 -48t-19.5 -48t-48.5 -20zM577 700v-145h-331v-129h271v-139h-271v-142h331v-145h-501v700h501z" />
    <glyph glyph-name="uni0402" unicode="&#x402;" horiz-adv-x="817" 
d="M394 451h138q255 0 255 -226q0 -108 -67 -166.5t-188 -58.5h-74v145h52q107 0 107 80q0 81 -107 81h-116v-306h-170v555h-194v145h650v-145h-286v-104z" />
    <glyph glyph-name="uni0403" unicode="&#x403;" horiz-adv-x="595" 
d="M234 750l98 150h183l-145 -150h-136zM547 700v-145h-301v-555h-170v700h471z" />
    <glyph glyph-name="uni0404" unicode="&#x404;" horiz-adv-x="721" 
d="M398 148q104 0 159 86l142 -91q-49 -72 -127.5 -113.5t-173.5 -41.5q-154 0 -258 103.5t-104 258.5t104 258.5t258 103.5q95 0 173.5 -41.5t127.5 -114.5l-145 -86q-55 82 -156 82q-64 0 -112.5 -36t-68.5 -96h237v-145h-235q20 -58 68.5 -92.5t110.5 -34.5z" />
    <glyph glyph-name="uni0405" unicode="&#x405;" horiz-adv-x="628" 
d="M571 552l-143 -69q-44 83 -133 83q-84 0 -84 -53q0 -28 29.5 -47.5t118.5 -46.5q54 -16 91 -32.5t69 -41.5t47.5 -61t15.5 -84q0 -54 -24 -96t-63 -66.5t-84.5 -37t-94.5 -12.5q-102 0 -178 47t-108 136l137 77q59 -113 159 -113q89 0 89 58q0 31 -30 53t-107 47
q-40 13 -66 23t-61 29t-56 40.5t-36 55t-15 73.5q0 98 74.5 148t182.5 50q100 0 168 -44t102 -116z" />
    <glyph glyph-name="uni0406" unicode="&#x406;" horiz-adv-x="322" 
d="M76 0v700h170v-700h-170z" />
    <glyph glyph-name="uni0407" unicode="&#x407;" horiz-adv-x="322" 
d="M72 746q-28 0 -48 20t-20 48t20 48t48 20t48 -20t20 -48t-20 -48t-48 -20zM250 746q-28 0 -48 20t-20 48t20 48t48 20t48 -20t20 -48t-20 -48t-48 -20zM76 0v700h170v-700h-170z" />
    <glyph glyph-name="uni0408" unicode="&#x408;" horiz-adv-x="532" 
d="M-12 146l152 60q18 -66 80 -66q31 0 50.5 19.5t19.5 60.5v480h170v-480q0 -110 -61.5 -170.5t-170.5 -60.5q-89 0 -151.5 39.5t-88.5 117.5z" />
    <glyph glyph-name="uni0409" unicode="&#x409;" horiz-adv-x="1101" 
d="M672 499h138q121 0 188 -65.5t67 -184.5q0 -113 -68 -181t-187 -68h-308v555h-208l-5 -245q-3 -125 -27 -192t-71.5 -92.5t-133.5 -25.5h-33v154h24q38 0 54 30t17 113l8 403h545v-201zM672 145h116q49 0 78 29.5t29 74.5q0 51 -28 78t-79 27h-116v-209z" />
    <glyph glyph-name="uni040A" unicode="&#x40a;" horiz-adv-x="1123" 
d="M694 459h138q255 0 255 -230q0 -111 -67 -170t-188 -59h-308v314h-278v-314h-170v700h170v-241h278v241h170v-241zM694 145h116q107 0 107 84q0 85 -107 85h-116v-169z" />
    <glyph glyph-name="uni040B" unicode="&#x40b;" horiz-adv-x="824" 
d="M543 457q114 0 179 -60.5t65 -185.5v-211h-170v211q0 101 -110 101q-49 0 -113 -18v-294h-170v555h-194v145h648v-145h-284v-117q79 19 149 19z" />
    <glyph glyph-name="uni040C" unicode="&#x40c;" horiz-adv-x="677" 
d="M378 900h183l-145 -150h-136zM662 695l-188 -324l200 -366v-5h-179l-158 294h-91v-294h-170v700h170v-261h90l145 261h181v-5z" />
    <glyph glyph-name="uni040D" unicode="&#x40d;" horiz-adv-x="765" 
d="M184 900h183l98 -150h-136zM229 0h-153v700h167v-430l293 430h153v-700h-167v430z" />
    <glyph glyph-name="uni040E" unicode="&#x40e;" horiz-adv-x="658" 
d="M333 743q-84 0 -125 40.5t-39 116.5h118q0 -52 46 -52t46 52h119q1 -76 -40 -116.5t-125 -40.5zM333 346l139 354h180v-6l-233 -510q-45 -99 -102 -141.5t-151 -42.5q-31 0 -78 9l17 135q23 -3 52 -3q36 0 56 9.5t35 33.5l-236 510v6h180z" />
    <glyph glyph-name="uni040F" unicode="&#x40f;" horiz-adv-x="770" 
d="M524 700h170v-700h-224v-150h-170v150h-224v700h170v-555h278v555z" />
    <glyph glyph-name="uni0410" unicode="&#x410;" horiz-adv-x="698" 
d="M287 700h124l294 -692v-8h-175l-42 109h-278l-42 -109h-175v8zM349 469l-87 -225h174z" />
    <glyph glyph-name="uni0411" unicode="&#x411;" horiz-adv-x="672" 
d="M246 433h162q116 0 175 -58t59 -159q0 -100 -59 -158t-175 -58h-332v700h499v-145h-329v-122zM246 145h142q49 0 70.5 17t21.5 54t-21.5 54.5t-70.5 17.5h-142v-143z" />
    <glyph glyph-name="uni0412" unicode="&#x412;" horiz-adv-x="669" 
d="M552 367q41 -21 64 -64.5t23 -99.5q0 -99 -58 -151t-163 -52h-342v700h327q100 0 156.5 -52.5t56.5 -146.5q0 -93 -64 -134zM378 563h-138v-138h138q80 0 80 68q0 70 -80 70zM240 137h155q84 0 84 82q0 80 -84 80h-155v-162z" />
    <glyph glyph-name="uni0413" unicode="&#x413;" horiz-adv-x="595" 
d="M547 700v-145h-301v-555h-170v700h471z" />
    <glyph glyph-name="uni0414" unicode="&#x414;" horiz-adv-x="794" 
d="M693 700v-555h76v-295h-170v150h-409v-150h-170v295h39q38 0 53 30t18 113l16 412h547zM273 145h250v410h-213l-10 -225q-5 -118 -27 -185z" />
    <glyph glyph-name="uni0415" unicode="&#x415;" horiz-adv-x="642" 
d="M577 700v-145h-331v-129h271v-139h-271v-142h331v-145h-501v700h501z" />
    <glyph glyph-name="uni0416" unicode="&#x416;" horiz-adv-x="1032" 
d="M1017 695l-188 -324l200 -366v-5h-174l-158 294h-96v-294h-170v294h-96l-158 -294h-174v5l200 366l-188 324v5h176l145 -261h95v261h170v-261h95l145 261h176v-5z" />
    <glyph glyph-name="uni0417" unicode="&#x417;" horiz-adv-x="609" 
d="M479 364q45 -20 72.5 -63t27.5 -102q0 -93 -72.5 -151.5t-205.5 -58.5q-198 0 -279 135l120 80q53 -70 154 -70q55 0 87 21.5t32 60.5q0 78 -116 78h-91v128h83q104 0 104 73q0 32 -29 51.5t-77 19.5q-88 0 -151 -63l-107 85q99 123 264 123q122 0 193 -56.5t71 -145.5
q0 -101 -80 -145z" />
    <glyph glyph-name="uni0418" unicode="&#x418;" horiz-adv-x="765" 
d="M229 0h-153v700h167v-430l293 430h153v-700h-167v430z" />
    <glyph glyph-name="uni0419" unicode="&#x419;" horiz-adv-x="765" 
d="M381 743q-84 0 -125 40.5t-39 116.5h118q0 -52 46 -52t46 52h119q1 -76 -40 -116.5t-125 -40.5zM243 270l293 430h153v-700h-167v430l-293 -430h-153v700h167v-430z" />
    <glyph glyph-name="uni041A" unicode="&#x41a;" horiz-adv-x="677" 
d="M662 695l-188 -324l200 -366v-5h-179l-158 294h-91v-294h-170v700h170v-261h90l145 261h181v-5z" />
    <glyph glyph-name="uni041B" unicode="&#x41b;" horiz-adv-x="748" 
d="M672 700v-700h-170v555h-205l-8 -245q-4 -125 -30 -192t-75.5 -92.5t-140.5 -25.5h-19v154h14q43 0 61 30.5t20 112.5l12 403h541z" />
    <glyph glyph-name="uni041C" unicode="&#x41c;" horiz-adv-x="920" 
d="M460 354l236 346h148v-700h-164v400l-200 -286h-40l-200 286v-400h-164v700h148z" />
    <glyph glyph-name="uni041D" unicode="&#x41d;" horiz-adv-x="770" 
d="M524 439v261h170v-700h-170v294h-278v-294h-170v700h170v-261h278z" />
    <glyph glyph-name="uni041E" unicode="&#x41e;" horiz-adv-x="796" 
d="M398 -12q-154 0 -258 103.5t-104 258.5t104 258.5t258 103.5t258 -103.5t104 -258.5t-104 -258.5t-258 -103.5zM398 148q82 0 137 57.5t55 144.5t-55 144.5t-137 57.5t-137 -57.5t-55 -144.5t55 -144.5t137 -57.5z" />
    <glyph glyph-name="uni041F" unicode="&#x41f;" horiz-adv-x="770" 
d="M246 0h-170v700h618v-700h-170v555h-278v-555z" />
    <glyph glyph-name="uni0420" unicode="&#x420;" horiz-adv-x="675" 
d="M76 700h308q119 0 187 -68t68 -181q0 -119 -67 -184.5t-188 -65.5h-138v-201h-170v700zM246 346h116q51 0 79 27t28 78q0 45 -29 74.5t-78 29.5h-116v-209z" />
    <glyph glyph-name="uni0421" unicode="&#x421;" horiz-adv-x="650" 
d="M400 141q42 0 79 15.5t58 39.5l101 -111q-85 -97 -248 -97q-152 0 -253 103t-101 259t101 259t253 103q163 0 248 -97l-101 -111q-21 24 -58 39.5t-79 15.5q-85 0 -142 -59t-57 -150t57 -150t142 -59z" />
    <glyph glyph-name="uni0422" unicode="&#x422;" horiz-adv-x="618" 
d="M30 700h558v-145h-194v-555h-170v555h-194v145z" />
    <glyph glyph-name="uni0423" unicode="&#x423;" horiz-adv-x="658" 
d="M333 346l139 354h180v-6l-233 -510q-45 -99 -102 -141.5t-151 -42.5q-31 0 -78 9l17 135q23 -3 52 -3q36 0 56 9.5t35 33.5l-236 510v6h180z" />
    <glyph glyph-name="uni0424" unicode="&#x424;" horiz-adv-x="976" 
d="M940 350q0 -154 -97.5 -246t-269.5 -96v-88h-170v88q-173 4 -270 96t-97 246t97 246t270 96v88h170v-88q173 -4 270 -96t97 -246zM206 350q0 -188 199 -194v388q-199 -6 -199 -194zM571 544v-388q199 6 199 194t-199 194z" />
    <glyph glyph-name="uni0425" unicode="&#x425;" horiz-adv-x="713" 
d="M710 6v-6h-196l-157 246l-158 -246h-196l2 6l240 356l-226 332v6h196l142 -222l141 222h196v-6l-226 -332z" />
    <glyph glyph-name="uni0426" unicode="&#x426;" horiz-adv-x="791" 
d="M689 700v-555h77v-295h-170v150h-520v700h170v-555h273v555h170z" />
    <glyph glyph-name="uni0427" unicode="&#x427;" horiz-adv-x="675" 
d="M36 700h170v-211q0 -105 110 -105q48 0 113 15v301h170v-700h-170v254q-69 -15 -135 -15q-125 0 -191.5 63.5t-66.5 186.5v211z" />
    <glyph glyph-name="uni0428" unicode="&#x428;" horiz-adv-x="1118" 
d="M872 145v555h170v-700h-966v700h170v-555h228v555h170v-555h228z" />
    <glyph glyph-name="uni0429" unicode="&#x429;" horiz-adv-x="1144" 
d="M1042 700v-555h77v-295h-170v150h-873v700h170v-555h228v555h170v-555h228v555h170z" />
    <glyph glyph-name="uni042A" unicode="&#x42a;" horiz-adv-x="823" 
d="M394 499h138q121 0 188 -65.5t67 -184.5q0 -113 -68 -181t-187 -68h-308v555h-194v145h364v-201zM394 145h116q49 0 78 29.5t29 74.5q0 51 -28 78t-79 27h-116v-209z" />
    <glyph glyph-name="uni042B" unicode="&#x42b;" horiz-adv-x="954" 
d="M384 0h-308v700h170v-201h138q121 0 188 -65.5t67 -184.5q0 -113 -68 -181t-187 -68zM708 0v700h170v-700h-170zM246 354v-209h116q49 0 78 29.5t29 74.5q0 51 -28 78t-79 27h-116z" />
    <glyph glyph-name="uni042C" unicode="&#x42c;" horiz-adv-x="675" 
d="M384 0h-308v700h170v-201h138q121 0 188 -65.5t67 -184.5q0 -113 -68 -181t-187 -68zM246 354v-209h116q49 0 78 29.5t29 74.5q0 51 -28 78t-79 27h-116z" />
    <glyph glyph-name="uni042D" unicode="&#x42d;" horiz-adv-x="721" 
d="M323 712q154 0 258 -103.5t104 -258.5t-104 -258.5t-258 -103.5q-95 0 -173.5 41.5t-127.5 113.5l142 91q55 -86 159 -86q62 0 110.5 34.5t68.5 92.5h-235v145h237q-20 60 -68.5 96t-112.5 36q-101 0 -156 -82l-145 86q49 73 127.5 114.5t173.5 41.5z" />
    <glyph glyph-name="uni042E" unicode="&#x42e;" horiz-adv-x="1068" 
d="M680 712q153 0 252.5 -103t99.5 -259t-99.5 -259t-252.5 -103q-136 0 -231 82.5t-116 213.5h-87v-284h-170v700h170v-271h89q25 126 119 204.5t226 78.5zM680 148q81 0 131.5 57t50.5 145t-50.5 145t-131.5 57t-131.5 -57t-50.5 -145t50.5 -145t131.5 -57z" />
    <glyph glyph-name="uni042F" unicode="&#x42f;" horiz-adv-x="680" 
d="M280 700h324v-700h-170v245h-103l-130 -245h-177v8l145 256q-63 25 -96.5 78.5t-33.5 130.5q0 106 64 166.5t177 60.5zM302 390h132v165h-132q-44 0 -68.5 -22.5t-24.5 -59.5q0 -38 24.5 -60.5t68.5 -22.5z" />
    <glyph glyph-name="uni0430" unicode="&#x430;" horiz-adv-x="589" 
d="M281 561q257 0 257 -244v-317h-163v25q-54 -35 -127 -35q-97 0 -160 53.5t-63 136.5t63 136.5t160 53.5q72 0 126 -35q-8 96 -121 96q-78 0 -155 -44l-52 110q41 25 104.5 44.5t130.5 19.5zM283 105q44 0 71 21.5t27 55.5t-27 55.5t-71 21.5q-43 0 -70.5 -21.5
t-27.5 -55.5t27.5 -55.5t70.5 -21.5z" />
    <glyph glyph-name="uni0431" unicode="&#x431;" horiz-adv-x="602" 
d="M322 513q103 0 177 -69.5t74 -188.5q0 -123 -77 -195.5t-195 -72.5q-119 0 -195.5 74t-76.5 202v31q0 147 47.5 239.5t159.5 132.5l45 16q54 20 71 32.5t21 35.5h149q-3 -66 -32 -106t-108 -64l-46 -14q-68 -20 -104 -43.5t-52 -62.5q56 53 142 53zM301 131q51 0 84 34
t33 90q0 57 -33 90.5t-84 33.5t-84 -33.5t-33 -90.5q0 -56 33 -90t84 -34z" />
    <glyph glyph-name="uni0432" unicode="&#x432;" horiz-adv-x="586" 
d="M479 284q72 -31 72 -123q0 -75 -46.5 -118t-129.5 -43h-314v550h298q81 0 125.5 -40.5t44.5 -115.5t-50 -110zM312 440h-91v-107h91q64 0 64 55q0 52 -64 52zM221 113h109q62 0 62 54q0 55 -62 55h-109v-109z" />
    <glyph glyph-name="uni0433" unicode="&#x433;" horiz-adv-x="452" 
d="M221 0h-160l1 550h372v-144h-212z" />
    <glyph glyph-name="uni0434" unicode="&#x434;" horiz-adv-x="615" 
d="M543 549v-405h62v-278h-155v134h-289v-134h-155v278h27q30 0 42 20.5t14 70.5l10 314h444zM234 144h149v261h-129l-4 -141q-2 -70 -16 -120z" />
    <glyph glyph-name="uni0435" unicode="&#x435;" horiz-adv-x="607" 
d="M306 560q135 0 211 -104.5t58 -241.5h-389q15 -38 46.5 -60t72.5 -22q64 0 103 53l122 -84q-81 -111 -224 -111q-120 0 -198.5 81.5t-78.5 203.5q0 123 78.5 204t198.5 81zM305 416q-45 0 -77.5 -24.5t-44.5 -67.5h239q-10 40 -40.5 66t-76.5 26z" />
    <glyph glyph-name="uni0436" unicode="&#x436;" horiz-adv-x="874" 
d="M860 546l-147 -275l151 -267v-4h-170l-108 197h-68v-197h-160v197h-70l-108 -197h-170v4l151 267l-147 275v4h176l105 -209h62v208h160v-208h62l105 209h176v-4z" />
    <glyph glyph-name="uni0437" unicode="&#x437;" horiz-adv-x="535" 
d="M428 282q72 -35 72 -127q0 -78 -60 -121.5t-180 -43.5q-113 0 -169.5 36t-75.5 107l146 35q13 -55 96 -55t83 50q0 51 -76 51h-64v127h64q70 0 70 50q0 49 -83 49q-41 0 -62 -11.5t-30 -40.5l-138 20q8 68 70 110t170 42q110 0 168.5 -44.5t58.5 -120.5q0 -80 -60 -113z
" />
    <glyph glyph-name="uni0438" unicode="&#x438;" horiz-adv-x="624" 
d="M231 0h-170v550h160v-285l172 285h170v-550h-160v285z" />
    <glyph glyph-name="uni0439" unicode="&#x439;" horiz-adv-x="624" 
d="M318 603q-84 0 -125 40.5t-39 116.5h118q0 -52 46 -52t46 52h119q1 -76 -40 -116.5t-125 -40.5zM221 265l172 285h170v-550h-160v285l-172 -285h-170v550h160v-285z" />
    <glyph glyph-name="uni043A" unicode="&#x43a;" horiz-adv-x="579" 
d="M565 546l-147 -275l151 -267v-4h-173l-108 197h-67v-197h-160l1 549h160v-208h59l105 209h179v-4z" />
    <glyph glyph-name="uni043B" unicode="&#x43b;" horiz-adv-x="610" 
d="M58 0h-48v146h17q30 0 42 19.5t14 69.5l10 314h456v-549h-160v405h-141l-5 -172q-4 -127 -42 -180t-143 -53z" />
    <glyph glyph-name="uni043C" unicode="&#x43c;" horiz-adv-x="766" 
d="M379 271l160 279h166v-550h-160v278l-122 -208h-80l-122 208v-278h-160v550h168z" />
    <glyph glyph-name="uni043D" unicode="&#x43d;" horiz-adv-x="624" 
d="M403 349v200h160v-549h-160v205h-182v-205h-160v549h160v-200h182z" />
    <glyph glyph-name="uni043E" unicode="&#x43e;" horiz-adv-x="622" 
d="M311 -13q-123 0 -202.5 81t-79.5 207t79.5 207t202.5 81t202.5 -81t79.5 -207t-79.5 -207t-202.5 -81zM311 131q54 0 90.5 41t36.5 103t-36.5 103t-90.5 41t-90.5 -41t-36.5 -103t36.5 -103t90.5 -41z" />
    <glyph glyph-name="uni043F" unicode="&#x43f;" horiz-adv-x="624" 
d="M221 0h-160v549h502v-549h-160v405h-182v-405z" />
    <glyph glyph-name="uni0440" unicode="&#x440;" horiz-adv-x="666" 
d="M384 558q110 0 181.5 -81t71.5 -202t-71.5 -202t-181.5 -81q-105 0 -163 70v-262h-160v750h160v-62q58 70 163 70zM349 132q57 0 92.5 40.5t35.5 102.5t-35.5 102.5t-92.5 40.5q-54 0 -90.5 -41t-36.5 -102t36.5 -102t90.5 -41z" />
    <glyph glyph-name="uni0441" unicode="&#x441;" horiz-adv-x="576" 
d="M29 275q0 127 78 206.5t203 79.5q77 0 143.5 -41t95.5 -106l-128 -66q-18 31 -48 50.5t-63 19.5q-56 0 -92 -40t-36 -103t36 -103t92 -40q34 0 63.5 19.5t47.5 51.5l128 -67q-29 -65 -95.5 -106t-143.5 -41q-125 0 -203 79.5t-78 206.5z" />
    <glyph glyph-name="uni0442" unicode="&#x442;" horiz-adv-x="514" 
d="M494 550v-144h-157v-406h-160v406h-157v144h474z" />
    <glyph glyph-name="uni0443" unicode="&#x443;" horiz-adv-x="544" 
d="M275 239l95 311h166v-6l-200 -607q-29 -89 -71 -132.5t-97.5 -47.5t-128.5 19l36 129q45 -14 73.5 -2.5t40.5 53.5l13 44l-196 544v6h171z" />
    <glyph glyph-name="uni0444" unicode="&#x444;" horiz-adv-x="878" 
d="M630 563q98 0 158.5 -80.5t60.5 -207.5t-60.5 -207.5t-158.5 -80.5q-63 0 -111 42v-229h-160v229q-48 -42 -111 -42q-98 0 -158.5 80.5t-60.5 207.5t60.5 207.5t158.5 80.5q63 0 111 -39v226h160v-226q48 39 111 39zM277 131q45 0 68 39.5t23 104.5t-23 104.5t-68 39.5
q-43 0 -68 -40t-25 -104t25 -104t68 -40zM601 131q43 0 68 40t25 104t-25 104t-68 40q-45 0 -68 -39.5t-23 -104.5t23 -104.5t68 -39.5z" />
    <glyph glyph-name="uni0445" unicode="&#x445;" horiz-adv-x="573" 
d="M579 5v-5h-181l-111 171l-112 -171h-181v5l191 282l-169 258v5h180l91 -157l90 157h180v-5l-168 -258z" />
    <glyph glyph-name="uni0446" unicode="&#x446;" horiz-adv-x="635" 
d="M563 549v-405h62v-278h-155v134h-409v549h160v-405h182v405h160z" />
    <glyph glyph-name="uni0447" unicode="&#x447;" horiz-adv-x="583" 
d="M362 327v223h160v-550h-160v189q-58 -12 -115 -12q-110 0 -161 47.5t-51 148.5v177h160v-157q0 -42 18.5 -58.5t64.5 -16.5t84 9z" />
    <glyph glyph-name="uni0448" unicode="&#x448;" horiz-adv-x="906" 
d="M845 0h-784v549h160v-405h152v405h160v-405h152v405h160v-549z" />
    <glyph glyph-name="uni0449" unicode="&#x449;" horiz-adv-x="917" 
d="M845 549v-405h62v-278h-155v134h-691v549h160v-405h152v405h160v-405h152v405h160z" />
    <glyph glyph-name="uni044A" unicode="&#x44a;" horiz-adv-x="674" 
d="M337 373h127q93 0 141.5 -49t48.5 -137t-49 -137.5t-141 -49.5h-287v405h-157v145h317v-177zM337 133h92q65 0 65 54q0 55 -65 55h-92v-109z" />
    <glyph glyph-name="uni044B" unicode="&#x44b;" horiz-adv-x="823" 
d="M348 0h-287v550h160v-177h127q93 0 141.5 -49t48.5 -137t-49 -137.5t-141 -49.5zM762 0h-160v550h160v-550zM221 242v-109h92q65 0 65 54q0 55 -65 55h-92z" />
    <glyph glyph-name="uni044C" unicode="&#x44c;" horiz-adv-x="558" 
d="M348 0h-287v550h160v-177h127q93 0 141.5 -49t48.5 -137t-49 -137.5t-141 -49.5zM221 242v-109h92q65 0 65 54q0 55 -65 55h-92z" />
    <glyph glyph-name="uni044D" unicode="&#x44d;" horiz-adv-x="546" 
d="M235 563q123 0 202.5 -81t79.5 -207t-79.5 -207t-202.5 -81q-141 0 -219 114l122 84q32 -54 97 -54q39 0 70.5 22.5t45.5 61.5h-171v134h165q-16 32 -45 51t-65 19q-61 0 -97 -48l-126 87q36 46 95 75.5t128 29.5z" />
    <glyph glyph-name="uni044E" unicode="&#x44e;" horiz-adv-x="861" 
d="M560 563q122 0 197 -80t75 -208t-75 -208t-197 -80q-102 0 -173 58t-91 155h-75v-200h-160v550h160v-206h73q20 100 91 159.5t175 59.5zM560 131q53 0 85 40.5t32 103.5t-32 103.5t-85 40.5t-85 -40.5t-32 -103.5t32 -103.5t85 -40.5z" />
    <glyph glyph-name="uni044F" unicode="&#x44f;" horiz-adv-x="583" 
d="M522 0h-160v177h-58l-101 -177h-173v4l112 190q-98 41 -98 170q0 88 48.5 137t141.5 49h287zM269 310h92v109h-92q-65 0 -65 -55q0 -54 65 -54z" />
    <glyph glyph-name="uni0450" unicode="&#x450;" horiz-adv-x="607" 
d="M292 760l98 -150h-136l-145 150h183zM306 560q135 0 211 -104.5t58 -241.5h-389q15 -38 46.5 -60t72.5 -22q64 0 103 53l122 -84q-81 -111 -224 -111q-120 0 -198.5 81.5t-78.5 203.5q0 123 78.5 204t198.5 81zM305 416q-45 0 -77.5 -24.5t-44.5 -67.5h239
q-10 40 -40.5 66t-76.5 26z" />
    <glyph glyph-name="uni0451" unicode="&#x451;" horiz-adv-x="607" 
d="M217 606q-29 0 -48.5 20t-19.5 48t19.5 48t48.5 20t48.5 -20t19.5 -48t-19.5 -48t-48.5 -20zM395 606q-29 0 -48.5 20t-19.5 48t19.5 48t48.5 20t48.5 -20t19.5 -48t-19.5 -48t-48.5 -20zM306 560q135 0 211 -104.5t58 -241.5h-389q15 -38 46.5 -60t72.5 -22q64 0 103 53
l122 -84q-81 -111 -224 -111q-120 0 -198.5 81.5t-78.5 203.5q0 123 78.5 204t198.5 81zM305 416q-45 0 -77.5 -24.5t-44.5 -67.5h239q-10 40 -40.5 66t-76.5 26z" />
    <glyph glyph-name="uni0452" unicode="&#x452;" horiz-adv-x="642" 
d="M387 485q97 0 150.5 -64t53.5 -182v-306q0 -92 -49.5 -139.5t-124.5 -47.5q-66 0 -137 26l42 130q28 -8 51 -8q58 0 58 65v280q0 51 -28 81.5t-73 30.5t-73 -30.5t-28 -81.5v-239h-160v544h-99v134h99v72h160v-72h195v-134h-195v-127q57 68 158 68z" />
    <glyph glyph-name="uni0453" unicode="&#x453;" horiz-adv-x="452" 
d="M171 600l98 150h183l-145 -150h-136zM221 0h-160l1 550h372v-144h-212z" />
    <glyph glyph-name="uni0454" unicode="&#x454;" horiz-adv-x="546" 
d="M311 131q65 0 97 54l122 -84q-78 -114 -219 -114q-123 0 -202.5 81t-79.5 207t79.5 207t202.5 81q69 0 128 -29.5t95 -75.5l-126 -87q-36 48 -97 48q-36 0 -65 -19t-45 -51h165v-134h-171q14 -39 45.5 -61.5t70.5 -22.5z" />
    <glyph glyph-name="uni0455" unicode="&#x455;" horiz-adv-x="508" 
d="M475 435l-131 -57q-14 24 -40 40.5t-57 16.5q-63 0 -63 -35q0 -20 21 -32.5t86 -29.5q95 -24 142.5 -63.5t47.5 -116.5q0 -84 -66.5 -128.5t-157.5 -44.5q-192 0 -245 140l131 66q39 -75 116 -75q64 0 64 45q0 19 -18.5 29t-68.5 24q-31 9 -55 16.5t-55 23t-51 33
t-34.5 45t-14.5 59.5q1 82 66.5 127.5t159.5 45.5q82 0 140 -35.5t83 -93.5z" />
    <glyph glyph-name="uni0456" unicode="&#x456;" horiz-adv-x="282" 
d="M141 604q-41 0 -68.5 28t-27.5 68t27.5 68t68.5 28t68.5 -28t27.5 -68t-27.5 -68t-68.5 -28zM221 0h-160v550h160v-550z" />
    <glyph glyph-name="uni0457" unicode="&#x457;" horiz-adv-x="282" 
d="M52 596q-28 0 -48 20t-20 48t20 48t48 20t48 -20t20 -48t-20 -48t-48 -20zM230 596q-28 0 -48 20t-20 48t20 48t48 20t48 -20t20 -48t-20 -48t-48 -20zM221 0h-160v550h160v-550z" />
    <glyph glyph-name="uni0458" unicode="&#x458;" horiz-adv-x="268" 
d="M127 604q-41 0 -68.5 28t-27.5 68t28 67.5t68 27.5t68 -27.5t28 -67.5t-27.5 -68t-68.5 -28zM-119 -208l58 117q35 -15 60 -15q48 0 48 65v591h160v-617q0 -92 -49.5 -139.5t-124.5 -47.5q-73 0 -152 46z" />
    <glyph glyph-name="uni0459" unicode="&#x459;" horiz-adv-x="891" 
d="M549 373h132q93 0 141.5 -49t48.5 -137t-49 -137.5t-141 -49.5h-292v405h-141l-5 -172q-4 -127 -42 -180t-143 -53h-48v146h17q30 0 42 19.5t14 69.5l10 314h456v-176zM549 133h97q65 0 65 54q0 55 -65 55h-97v-109z" />
    <glyph glyph-name="uni045A" unicode="&#x45a;" horiz-adv-x="900" 
d="M563 369h127q93 0 141.5 -47.5t48.5 -135.5t-48.5 -137t-141.5 -49h-287v235h-182v-235h-160v549h160v-180h182v180h160v-180zM563 133h92q65 0 65 51t-65 51h-92v-102z" />
    <glyph glyph-name="uni045B" unicode="&#x45b;" horiz-adv-x="642" 
d="M387 485q97 0 150.5 -64t53.5 -182v-239h-160v239q0 51 -28 81.5t-73 30.5t-73 -30.5t-28 -81.5v-239h-160v544h-99v134h99v72h160v-72h195v-134h-195v-127q57 68 158 68z" />
    <glyph glyph-name="uni045C" unicode="&#x45c;" horiz-adv-x="579" 
d="M318 750h183l-145 -150h-136zM565 546l-147 -275l151 -267v-4h-173l-108 197h-67v-197h-160l1 549h160v-208h59l105 209h179v-4z" />
    <glyph glyph-name="uni045D" unicode="&#x45d;" horiz-adv-x="624" 
d="M121 760h183l98 -150h-136zM231 0h-170v550h160v-285l172 285h170v-550h-160v285z" />
    <glyph glyph-name="uni045E" unicode="&#x45e;" horiz-adv-x="544" 
d="M273 593q-84 0 -125 40.5t-39 116.5h118q0 -52 46 -52t46 52h119q1 -76 -40 -116.5t-125 -40.5zM275 239l95 311h166v-6l-200 -607q-29 -89 -71 -132.5t-97.5 -47.5t-128.5 19l36 129q45 -14 73.5 -2.5t40.5 53.5l13 44l-196 544v6h171z" />
    <glyph glyph-name="uni045F" unicode="&#x45f;" horiz-adv-x="624" 
d="M403 549h160v-549h-173v-134h-155v134h-174v549h160v-405h182v405z" />
    <glyph glyph-name="uni0462" unicode="&#x462;" horiz-adv-x="757" 
d="M354 411h142q231 0 231 -206q0 -205 -231 -205h-312v475h-154v145h154v80h170v-80h234v-145h-234v-64zM354 145h123q80 0 80 60q0 61 -80 61h-123v-121z" />
    <glyph glyph-name="uni0463" unicode="&#x463;" horiz-adv-x="566" 
d="M229 373h127q93 0 141.5 -49t48.5 -137t-49 -137.5t-141 -49.5h-287v474h-99v134h99v142h160v-142h195v-134h-195v-101zM229 133h92q65 0 65 54q0 55 -65 55h-92v-109z" />
    <glyph glyph-name="uni0490" unicode="&#x490;" horiz-adv-x="595" 
d="M377 700v150h170v-295h-301v-555h-170v700h301z" />
    <glyph glyph-name="uni0491" unicode="&#x491;" horiz-adv-x="452" 
d="M279 550v134h155v-278h-212l-1 -406h-160l1 550h217z" />
    <glyph glyph-name="uni04C1" unicode="&#x4c1;" horiz-adv-x="1032" 
d="M516 743q-84 0 -125 40.5t-39 116.5h118q0 -52 46 -52t46 52h119q1 -76 -40 -116.5t-125 -40.5zM1017 695l-188 -324l200 -366v-5h-174l-158 294h-96v-294h-170v294h-96l-158 -294h-174v5l200 366l-188 324v5h176l145 -261h95v261h170v-261h95l145 261h176v-5z" />
    <glyph glyph-name="uni04C2" unicode="&#x4c2;" horiz-adv-x="874" 
d="M437 592q-84 0 -125 40.5t-39 116.5h118q0 -52 46 -52t46 52h119q1 -76 -40 -116.5t-125 -40.5zM860 546l-147 -275l151 -267v-4h-170l-108 197h-68v-197h-160v197h-70l-108 -197h-170v4l151 267l-147 275v4h176l105 -209h62v208h160v-208h62l105 209h176v-4z" />
    <glyph glyph-name="uni04F8" unicode="&#x4f8;" horiz-adv-x="954" 
d="M395 746q-29 0 -48.5 20t-19.5 48t19.5 48t48.5 20t48.5 -20t19.5 -48t-19.5 -48t-48.5 -20zM573 746q-29 0 -48.5 20t-19.5 48t19.5 48t48.5 20t48.5 -20t19.5 -48t-19.5 -48t-48.5 -20zM384 0h-308v700h170v-201h138q121 0 188 -65.5t67 -184.5q0 -113 -68 -181
t-187 -68zM708 0v700h170v-700h-170zM246 354v-209h116q49 0 78 29.5t29 74.5q0 51 -28 78t-79 27h-116z" />
    <glyph glyph-name="uni04F9" unicode="&#x4f9;" horiz-adv-x="823" 
d="M320 601q-28 0 -48 19.5t-20 48.5t20 48.5t48 19.5t48 -19.5t20 -48.5t-20 -48.5t-48 -19.5zM498 601q-28 0 -48 19.5t-20 48.5t20 48.5t48 19.5t48 -19.5t20 -48.5t-20 -48.5t-48 -19.5zM348 0h-287v550h160v-177h127q93 0 141.5 -49t48.5 -137t-49 -137.5t-141 -49.5z
M762 0h-160v550h160v-550zM221 242v-109h92q65 0 65 54q0 55 -65 55h-92z" />
    <glyph glyph-name="uni05B0" unicode="&#x5b0;" 
d="M301 -167q-23 0 -39 16t-16 39t16 39t39 16t39 -16t16 -39t-16 -39t-39 -16zM301 -308q-23 0 -39 16t-16 39t16 39t39 16t39 -16t16 -39t-16 -39t-39 -16z" />
    <glyph glyph-name="uni05B1" unicode="&#x5b1;" 
d="M157 -167q-23 0 -39 16t-16 39t16 39t39 16t39 -16t16 -39t-16 -39t-39 -16zM301 -167q-23 0 -39 16t-16 39t16 39t39 16t39 -16t16 -39t-16 -39t-39 -16zM447 -167q-23 0 -39 16t-16 39t16 39t39 16t39 -16t16 -39t-16 -39t-39 -16zM229 -287q-23 0 -39 16t-16 39t16 39
t39 16t39 -16t16 -39t-16 -39t-39 -16zM447 -308q-23 0 -39 16t-16 39t16 39t39 16t39 -16t16 -39t-16 -39t-39 -16z" />
    <glyph glyph-name="uni05B2" unicode="&#x5b2;" 
d="M442 -167q-23 0 -39 16t-16 39t16 39t39 16t39 -16t16 -39t-16 -39t-39 -16zM109 -149v83h236v-83h-236zM442 -308q-23 0 -39 16t-16 39t16 39t39 16t39 -16t16 -39t-16 -39t-39 -16z" />
    <glyph glyph-name="uni05B3" unicode="&#x5b3;" 
d="M454 -167q-23 0 -39 16t-16 39t16 39t39 16t39 -16t16 -39t-16 -39t-39 -16zM192 -146h-91v76h259v-76h-91l3 -75v-62h-83v62zM454 -198q23 0 39 -16t16 -39t-16 -39t-39 -16t-39 16t-16 39t16 39t39 16z" />
    <glyph glyph-name="uni05B4" unicode="&#x5b4;" 
d="M301 -176q-24 0 -41 17t-17 41t17 41t41 17t41 -17t17 -41t-17 -41t-41 -17z" />
    <glyph glyph-name="uni05B5" unicode="&#x5b5;" 
d="M228 -167q-23 0 -39 16t-16 39t16 39t39 16t39 -16t16 -39t-16 -39t-39 -16zM374 -167q-23 0 -39 16t-16 39t16 39t39 16t39 -16t16 -39t-16 -39t-39 -16z" />
    <glyph glyph-name="uni05B6" unicode="&#x5b6;" 
d="M229 -167q-23 0 -39 16t-16 39t16 39t39 16t39 -16t16 -39t-16 -39t-39 -16zM373 -167q-23 0 -39 16t-16 39t16 39t39 16t39 -16t16 -39t-16 -39t-39 -16zM301 -287q-23 0 -39 16t-16 39t16 39t39 16t39 -16t16 -39t-16 -39t-39 -16z" />
    <glyph glyph-name="uni05B7" unicode="&#x5b7;" 
d="M183 -149v83h236v-83h-236z" />
    <glyph glyph-name="uni05B8" unicode="&#x5b8;" 
d="M172 -70h259v-76h-91l3 -75v-62h-83v62l3 75h-91v76z" />
    <glyph glyph-name="uni05B9" unicode="&#x5b9;" 
d="M298 651q-24 0 -41 17t-17 41t17 41t41 17t41 -17t17 -41t-17 -41t-41 -17z" />
    <glyph glyph-name="uni05BA" unicode="&#x5ba;" 
d="M301 651q-24 0 -41 17t-17 41t17 41t41 17t41 -17t17 -41t-17 -41t-41 -17z" />
    <glyph glyph-name="uni05BB" unicode="&#x5bb;" 
d="M300 -161q-22 0 -37 15t-15 37t15 37t37 15t37 -15t15 -37t-15 -37t-37 -15zM400 -249q-22 0 -37 15t-15 37t15 37t37 15t37 -15t15 -37t-15 -37t-37 -15zM500 -337q-22 0 -37 15t-15 37t15 37t37 15t37 -15t15 -37t-15 -37t-37 -15z" />
    <glyph glyph-name="uni05BC" unicode="&#x5bc;" 
d="M301 240q-23 0 -39.5 16.5t-16.5 39.5t16.5 39.5t39.5 16.5t39.5 -16.5t16.5 -39.5t-16.5 -39.5t-39.5 -16.5z" />
    <glyph glyph-name="uni05BE" unicode="&#x5be;" horiz-adv-x="415" 
d="M52 455v145h311v-145h-311z" />
    <glyph glyph-name="uni05BF" unicode="&#x5bf;" 
d="M178 651v79h246v-79h-246z" />
    <glyph glyph-name="uni05C1" unicode="&#x5c1;" 
d="M432 651q-24 0 -41 17t-17 41t17 41t41 17t41 -17t17 -41t-17 -41t-41 -17z" />
    <glyph glyph-name="uni05C2" unicode="&#x5c2;" 
d="M171 651q-24 0 -41 17t-17 41t17 41t41 17t41 -17t17 -41t-17 -41t-41 -17z" />
    <glyph glyph-name="uni05C3" unicode="&#x5c3;" horiz-adv-x="338" 
d="M169 393q-45 0 -76.5 31.5t-31.5 76.5t31.5 76.5t76.5 31.5t76.5 -31.5t31.5 -76.5t-31.5 -76.5t-76.5 -31.5zM169 -7q-45 0 -76.5 31.5t-31.5 76.5t31.5 76.5t76.5 31.5t76.5 -31.5t31.5 -76.5t-31.5 -76.5t-76.5 -31.5z" />
    <glyph glyph-name="uni05C6" unicode="&#x5c6;" horiz-adv-x="389" 
d="M349 145v-145h-287v426q0 91 40.5 132.5t133.5 41.5h97v-145h-44q-34 0 -45.5 -16t-11.5 -60v-234h117z" />
    <glyph glyph-name="uni05C7" unicode="&#x5c7;" 
d="M216 -66h186v-55h-65l2 -54v-45h-60v45l2 54h-65v55z" />
    <glyph glyph-name="uni05D0" unicode="&#x5d0;" horiz-adv-x="710" 
d="M514 211l150 -204v-7h-188l-202 274q-70 -61 -63 -274h-170q-4 165 32.5 255.5t116.5 133.5l-150 204v7h188l202 -274q70 61 63 274h170q4 -165 -32.5 -255.5t-116.5 -133.5z" />
    <glyph glyph-name="uni05D1" unicode="&#x5d1;" horiz-adv-x="648" 
d="M551 310v-165h68v-145h-568v145h330v153q0 79 -36 124t-101 45q-70 0 -156 -48l-56 126q113 67 240 67q143 0 211 -75.5t68 -226.5z" />
    <glyph glyph-name="uni05D2" unicode="&#x5d2;" horiz-adv-x="426" 
d="M78 600h87q101 0 150 -44t49 -136v-420h-129l-26 96l-5 1q-43 -97 -139 -97h-45v160h45q135 0 135 126v98q0 38 -15.5 54.5t-52.5 16.5h-54v145z" />
    <glyph glyph-name="uni05D3" unicode="&#x5d3;" horiz-adv-x="635" 
d="M36 455v145h557v-145q-64 0 -92.5 -36.5t-28.5 -110.5v-308h-170v302q0 102 59 153h-325z" />
    <glyph glyph-name="uni05D4" unicode="&#x5d4;" horiz-adv-x="693" 
d="M64 455v145h245q168 0 245.5 -77.5t77.5 -246.5v-276h-170v276q0 96 -35.5 137.5t-117.5 41.5h-245zM69 0v311l170 22v-333h-170z" />
    <glyph glyph-name="uni05D5" unicode="&#x5d5;" horiz-adv-x="304" 
d="M67 600h170v-600h-170v600z" />
    <glyph glyph-name="uni05D6" unicode="&#x5d6;" horiz-adv-x="440" 
d="M410 600v-145q-127 0 -144.5 -99.5t78.5 -355.5h-181q-135 376 29 455h-150v145h368z" />
    <glyph glyph-name="uni05D7" unicode="&#x5d7;" horiz-adv-x="711" 
d="M67 600h263q165 0 242.5 -71t77.5 -225v-304h-170v304q0 77 -36 114t-114 37h-93v-455h-170v600z" />
    <glyph glyph-name="uni05D8" unicode="&#x5d8;" horiz-adv-x="705" 
d="M431 608q107 0 171 -71t64 -218q0 -157 -79.5 -243t-226.5 -86q-149 0 -233.5 86.5t-84.5 242.5v281h170v-281q0 -88 38.5 -136t109.5 -48q140 0 140 184q0 144 -90 144q-34 0 -79 -19l-42 127q67 37 142 37z" />
    <glyph glyph-name="uni05D9" unicode="&#x5d9;" horiz-adv-x="292" 
d="M61 235v365h170v-339z" />
    <glyph glyph-name="uni05DA" unicode="&#x5da;" horiz-adv-x="570" 
d="M36 455v145h177q164 0 230 -71t66 -246v-433h-170v433q0 94 -31 133t-107 39h-165z" />
    <glyph glyph-name="uni05DB" unicode="&#x5db;" horiz-adv-x="575" 
d="M235 610q140 0 222.5 -83.5t82.5 -226.5t-82.5 -226.5t-222.5 -83.5q-113 0 -205 61l53 118q76 -39 130 -39q74 0 115.5 46t41.5 124t-41.5 124t-115.5 46q-57 0 -129 -40l-54 119q92 61 205 61z" />
    <glyph glyph-name="uni05DC" unicode="&#x5dc;" horiz-adv-x="588" 
d="M208 700v-100h359v-15l-208 -585h-181v6l164 449h-304v245h170z" />
    <glyph glyph-name="uni05DD" unicode="&#x5dd;" horiz-adv-x="717" 
d="M67 600h292q156 0 226.5 -62t70.5 -207v-331h-589v600zM237 455v-310h249v172q0 75 -31 106.5t-98 31.5h-120z" />
    <glyph glyph-name="uni05DE" unicode="&#x5de;" horiz-adv-x="762" 
d="M439 609q128 0 206 -85t78 -221q0 -190 -107 -268t-277 -12l37 138q187 -82 187 142q0 74 -32.5 115t-83.5 41q-49 0 -85 -43t-65 -149l-72 -267h-168l77 273l-112 327h167l38 -127q34 67 89.5 101.5t122.5 34.5z" />
    <glyph glyph-name="uni05DF" unicode="&#x5df;" horiz-adv-x="304" 
d="M67 600h170v-750h-170v750z" />
    <glyph glyph-name="uni05E0" unicode="&#x5e0;" horiz-adv-x="389" 
d="M327 0h-287v145h117v234q0 44 -11.5 60t-45.5 16h-44v145h97q93 0 133.5 -41.5t40.5 -132.5v-426z" />
    <glyph glyph-name="uni05E1" unicode="&#x5e1;" horiz-adv-x="685" 
d="M42 600h302q149 0 225.5 -74t76.5 -221q0 -149 -80.5 -233t-221.5 -84q-142 0 -222 84t-80 233v295zM344 133q63 0 97.5 45t34.5 127q0 76 -31.5 113t-100.5 37h-132v-150q0 -82 34 -127t98 -45z" />
    <glyph glyph-name="uni05E2" unicode="&#x5e2;" horiz-adv-x="655" 
d="M428 385v215h170v-215q0 -79 -14.5 -139.5t-52 -114t-98.5 -89t-156 -58t-224 -28.5l-12 139q105 13 132 17l-136 488h176l120 -444q51 29 73 81.5t22 147.5z" />
    <glyph glyph-name="uni05E3" unicode="&#x5e3;" horiz-adv-x="641" 
d="M288 610q146 0 220 -75t74 -219v-466h-165v465q0 150 -125 150q-40 0 -69 -30.5t-29 -72.5q0 -45 25 -72t73 -33l-25 -141q-111 9 -177.5 78t-66.5 169q0 109 73.5 178t191.5 69z" />
    <glyph glyph-name="uni05E4" unicode="&#x5e4;" horiz-adv-x="658" 
d="M308 611q150 0 232.5 -82.5t82.5 -223.5q0 -146 -86 -231t-249 -85q-129 0 -227 42l42 132q81 -32 182 -32q79 0 123.5 47.5t44.5 126.5q0 73 -39.5 118.5t-105.5 45.5q-53 0 -80.5 -19.5t-27.5 -53.5q0 -33 27 -50.5t76 -14.5l-5 -131q-121 -8 -194.5 48.5t-73.5 147.5
q0 106 77.5 160.5t200.5 54.5z" />
    <glyph glyph-name="uni05E5" unicode="&#x5e5;" horiz-adv-x="650" 
d="M430 600h170q4 -146 -19.5 -240.5t-72 -145t-129.5 -75.5l116 -285v-4h-181l-304 746v4h181l133 -327q64 30 87 101.5t19 225.5z" />
    <glyph glyph-name="uni05E6" unicode="&#x5e6;" horiz-adv-x="641" 
d="M447 233l151 -221v-12h-539v145h260l-311 450v5h187l171 -249q70 51 63 249h164q4 -155 -30.5 -241t-115.5 -126z" />
    <glyph glyph-name="uni05E7" unicode="&#x5e7;" horiz-adv-x="707" 
d="M64 455v145h578v-341q0 -266 -225 -266q-65 0 -120 17l19 140q43 -12 77 -12q46 0 65.5 27.5t19.5 109.5v180h-414zM69 328l164 20v-498h-164v478z" />
    <glyph glyph-name="uni05E8" unicode="&#x5e8;" horiz-adv-x="601" 
d="M538 310v-310h-164v303q0 80 -37.5 123.5t-106.5 43.5q-68 0 -162 -48l-56 121q117 65 247 65q126 0 202.5 -74.5t76.5 -223.5z" />
    <glyph glyph-name="uni05E9" unicode="&#x5e9;" horiz-adv-x="826" 
d="M614 342v258h170v-253q0 -174 -96 -267t-275 -93t-275 93t-96 267v253h170v-258q0 -102 52 -156t149 -54t149 54t52 156zM328 600h170v-330l-170 -34v364z" />
    <glyph glyph-name="uni05EA" unicode="&#x5ea;" horiz-adv-x="763" 
d="M74 600h310q171 0 244.5 -68t73.5 -230v-302h-170v302q0 80 -34.5 116.5t-115.5 36.5h-70v-299q0 -81 -43.5 -121.5t-110.5 -40.5q-86 0 -138 19l22 134q34 -9 60 -9q24 0 33 15t9 53v249h-70v145z" />
    <glyph glyph-name="uni05EF" unicode="&#x5ef;" horiz-adv-x="780" 
d="M305 360v365h170v-339zM61 235v365h170v-339zM549 235v365h170v-339z" />
    <glyph glyph-name="uni05F0" unicode="&#x5f0;" horiz-adv-x="608" 
d="M67 600h170v-600h-170v600zM371 600h170v-600h-170v600z" />
    <glyph glyph-name="uni05F1" unicode="&#x5f1;" horiz-adv-x="604" 
d="M61 235v365h170v-339zM367 600h170v-600h-170v600z" />
    <glyph glyph-name="uni05F2" unicode="&#x5f2;" horiz-adv-x="579" 
d="M61 235v365h170v-339zM348 235v365h170v-339z" />
    <glyph glyph-name="uni05F3" unicode="&#x5f3;" horiz-adv-x="274" 
d="M38 405l47 295h167l-84 -295h-130z" />
    <glyph glyph-name="uni05F4" unicode="&#x5f4;" horiz-adv-x="474" 
d="M38 405l46 295h164l-82 -295h-128zM242 405l46 295h164l-82 -295h-128z" />
    <glyph glyph-name="uni0E3F" unicode="&#xe3f;" horiz-adv-x="643" 
d="M530 366q39 -19 61 -61t22 -95q0 -94 -55 -143.5t-156 -49.5h-32v-77h-123v77h-171v667h171v76h123v-76h18q96 0 149.5 -50.5t53.5 -139.5q0 -88 -61 -128zM364 553h-131v-131h131q76 0 76 65q0 66 -76 66zM233 148h147q80 0 80 78q0 76 -80 76h-147v-154z" />
    <glyph glyph-name="uni1E3E" unicode="&#x1e3e;" horiz-adv-x="920" 
d="M382 750l98 150h183l-145 -150h-136zM460 354l236 346h148v-700h-164v400l-200 -286h-40l-200 286v-400h-164v700h148z" />
    <glyph glyph-name="uni1E3F" unicode="&#x1e3f;" horiz-adv-x="934" 
d="M528 750h183l-145 -150h-136zM690 560q87 0 139 -53.5t52 -149.5v-357h-160v336q0 40 -23 65.5t-60 25.5q-39 0 -63 -25t-24 -66v-336h-160v336q0 40 -23 65.5t-60 25.5q-39 0 -63 -25t-24 -66v-336h-160v550h160v-52q53 62 145 62q107 0 151 -85q55 85 173 85z" />
    <glyph glyph-name="Wgrave" unicode="&#x1e80;" horiz-adv-x="1022" 
d="M314 900h183l98 -150h-136zM831 700h183v-10l-241 -690h-119l-143 419l-143 -419h-119l-241 690v10h183l126 -388l125 388h138l125 -388z" />
    <glyph glyph-name="wgrave" unicode="&#x1e81;" horiz-adv-x="826" 
d="M216 750h183l98 -150h-136zM558 263l92 287h167v-5l-197 -545h-95l-112 274l-113 -274h-94l-197 545v5h167l92 -287l109 287h72z" />
    <glyph glyph-name="Wacute" unicode="&#x1e82;" horiz-adv-x="1022" 
d="M433 750l98 150h183l-145 -150h-136zM831 700h183v-10l-241 -690h-119l-143 419l-143 -419h-119l-241 690v10h183l126 -388l125 388h138l125 -388z" />
    <glyph glyph-name="wacute" unicode="&#x1e83;" horiz-adv-x="826" 
d="M335 600l98 150h183l-145 -150h-136zM558 263l92 287h167v-5l-197 -545h-95l-112 274l-113 -274h-94l-197 545v5h167l92 -287l109 287h72z" />
    <glyph glyph-name="Wdieresis" unicode="&#x1e84;" horiz-adv-x="1022" 
d="M422 746q-28 0 -48 20t-20 48t20 48t48 20t48 -20t20 -48t-20 -48t-48 -20zM600 746q-28 0 -48 20t-20 48t20 48t48 20t48 -20t20 -48t-20 -48t-48 -20zM831 700h183v-10l-241 -690h-119l-143 419l-143 -419h-119l-241 690v10h183l126 -388l125 388h138l125 -388z" />
    <glyph glyph-name="wdieresis" unicode="&#x1e85;" horiz-adv-x="826" 
d="M324 596q-28 0 -48 20t-20 48t20 48t48 20t48 -20t20 -48t-20 -48t-48 -20zM502 596q-28 0 -48 20t-20 48t20 48t48 20t48 -20t20 -48t-20 -48t-48 -20zM558 263l92 287h167v-5l-197 -545h-95l-112 274l-113 -274h-94l-197 545v5h167l92 -287l109 287h72z" />
    <glyph glyph-name="uni1E9E" unicode="&#x1e9e;" horiz-adv-x="691" 
d="M643 687l-162 -266q83 -12 134 -70t51 -148t-65.5 -149.5t-168.5 -59.5q-95 0 -137 20l33 133q32 -8 70 -8q48 0 73.5 23t25.5 62t-29.5 61.5t-88.5 22.5h-61v120l74 126h-53q-46 0 -72 -22t-26 -81v-451h-170v442q0 135 65 196.5t199 61.5h308v-13z" />
    <glyph glyph-name="uni1EBC" unicode="&#x1ebc;" horiz-adv-x="642" 
d="M234 762l-52 58q53 68 113 68q21 0 36.5 -9t23 -19.5t18 -19.5t22.5 -9q27 0 55 33l52 -58q-19 -30 -49 -48.5t-61 -18.5q-27 0 -44 14.5t-29 28.5t-28 14q-32 0 -57 -34zM577 700v-145h-331v-129h271v-139h-271v-142h331v-145h-501v700h501z" />
    <glyph glyph-name="uni1EBD" unicode="&#x1ebd;" horiz-adv-x="607" 
d="M257 656q-32 0 -57 -34l-52 58q53 68 113 68q21 0 36.5 -9t23 -19.5t18 -19.5t22.5 -9q27 0 55 33l52 -58q-19 -30 -49 -48.5t-61 -18.5q-27 0 -44 14.5t-29 28.5t-28 14zM306 560q135 0 211 -104.5t58 -241.5h-389q15 -38 46.5 -60t72.5 -22q64 0 103 53l122 -84
q-81 -111 -224 -111q-120 0 -198.5 81.5t-78.5 203.5q0 123 78.5 204t198.5 81zM305 416q-45 0 -77.5 -24.5t-44.5 -67.5h239q-10 40 -40.5 66t-76.5 26z" />
    <glyph glyph-name="Ygrave" unicode="&#x1ef2;" horiz-adv-x="664" 
d="M135 900h183l98 -150h-136zM331 449l140 251h191v-6l-246 -410v-284h-170v284l-244 410v6h191z" />
    <glyph glyph-name="ygrave" unicode="&#x1ef3;" horiz-adv-x="544" 
d="M259 750l98 -150h-136l-145 150h183zM275 239l95 311h166v-6l-200 -607q-29 -89 -71 -132.5t-97.5 -47.5t-128.5 19l36 129q45 -14 73.5 -2.5t40.5 53.5l13 44l-196 544v6h171z" />
    <glyph glyph-name="uni1EF8" unicode="&#x1ef8;" horiz-adv-x="664" 
d="M226 762l-52 58q53 68 113 68q21 0 36.5 -9t23 -19.5t18 -19.5t22.5 -9q27 0 55 33l52 -58q-19 -30 -49 -48.5t-61 -18.5q-27 0 -44 14.5t-29 28.5t-28 14q-32 0 -57 -34zM331 449l140 251h191v-6l-246 -410v-284h-170v284l-244 410v6h191z" />
    <glyph glyph-name="uni1EF9" unicode="&#x1ef9;" horiz-adv-x="544" 
d="M224 646q-32 0 -57 -34l-52 58q53 68 113 68q21 0 36.5 -9t23 -19.5t18 -19.5t22.5 -9q28 0 55 33l52 -58q-19 -30 -49 -48.5t-61 -18.5q-27 0 -44 14.5t-29 28.5t-28 14zM275 239l95 311h166v-6l-200 -607q-29 -89 -71 -132.5t-97.5 -47.5t-128.5 19l36 129
q45 -14 73.5 -2.5t40.5 53.5l13 44l-196 544v6h171z" />
    <glyph glyph-name="uni200B" unicode="&#x200b;" 
 />
    <glyph glyph-name="endash" unicode="&#x2013;" horiz-adv-x="725" 
d="M666 230h-607v140h607v-140z" />
    <glyph glyph-name="emdash" unicode="&#x2014;" horiz-adv-x="830" 
d="M789 356v-112h-748v112h748z" />
    <glyph glyph-name="quoteleft" unicode="&#x2018;" horiz-adv-x="283" 
d="M244 712l-47 -295h-167l84 295h130z" />
    <glyph glyph-name="quoteright" unicode="&#x2019;" horiz-adv-x="274" 
d="M38 405l47 295h167l-84 -295h-130z" />
    <glyph glyph-name="quotesinglbase" unicode="&#x201a;" horiz-adv-x="264" 
d="M18 -137l47 283h164l-85 -283h-126z" />
    <glyph glyph-name="quotedblleft" unicode="&#x201c;" horiz-adv-x="483" 
d="M240 712l-46 -295h-164l82 295h128zM444 712l-46 -295h-164l82 295h128z" />
    <glyph glyph-name="quotedblright" unicode="&#x201d;" horiz-adv-x="474" 
d="M38 405l46 295h164l-82 -295h-128zM242 405l46 295h164l-82 -295h-128z" />
    <glyph glyph-name="quotedblbase" unicode="&#x201e;" horiz-adv-x="467" 
d="M18 -137l47 283h164l-85 -283h-126zM221 -137l47 283h164l-85 -283h-126z" />
    <glyph glyph-name="dagger" unicode="&#x2020;" horiz-adv-x="725" 
d="M438 750v-233h228v-140h-607v140h219v233h160zM438 -200h-160v361h160v-361z" />
    <glyph glyph-name="daggerdbl" unicode="&#x2021;" horiz-adv-x="725" 
d="M438 750v-233h228v-140h-607v140h219v233h160zM278 21h-219v140h607v-140h-228v-221h-160v221z" />
    <glyph glyph-name="bullet" unicode="&#x2022;" horiz-adv-x="521" 
d="M261 90q-89 0 -150 61t-61 149t61 148.5t150 60.5q88 0 149 -60.5t61 -148.5t-60.5 -149t-149.5 -61z" />
    <glyph glyph-name="ellipsis" unicode="&#x2026;" horiz-adv-x="818" 
d="M149 -7q-45 0 -76.5 31.5t-31.5 76.5t31.5 76.5t76.5 31.5t76.5 -31.5t31.5 -76.5t-31.5 -76.5t-76.5 -31.5zM409 -7q-45 0 -76.5 31.5t-31.5 76.5t31.5 76.5t76.5 31.5t76.5 -31.5t31.5 -76.5t-31.5 -76.5t-76.5 -31.5zM669 -7q-45 0 -76.5 31.5t-31.5 76.5t31.5 76.5
t76.5 31.5t76.5 -31.5t31.5 -76.5t-31.5 -76.5t-76.5 -31.5z" />
    <glyph glyph-name="perthousand" unicode="&#x2030;" horiz-adv-x="1293" 
d="M237 291q-88 0 -139.5 57t-51.5 151t51.5 151t139.5 57q86 0 137 -57t51 -151t-51 -151t-137 -57zM469 442v13l167 245h161v-5l-187 -253h-141zM237 394q34 0 52 28.5t18 76.5q0 49 -18 77.5t-52 28.5q-35 0 -53.5 -28.5t-18.5 -77.5q0 -48 18.5 -76.5t53.5 -28.5z
M660 -8q-88 0 -139.5 57t-51.5 151t51.5 151t139.5 57q86 0 137 -57t51 -151t-51 -151t-137 -57zM1064 -8q-88 0 -139.5 57t-51.5 151t51.5 151t139.5 57q86 0 137 -57t51 -151t-51 -151t-137 -57zM660 95q34 0 52 28.5t18 76.5q0 49 -18 77.5t-52 28.5q-35 0 -53.5 -28.5
t-18.5 -77.5q0 -48 18.5 -76.5t53.5 -28.5zM1064 95q34 0 52 28.5t18 76.5q0 49 -18 77.5t-52 28.5q-35 0 -53.5 -28.5t-18.5 -77.5q0 -48 18.5 -76.5t53.5 -28.5zM433 258v-13l-167 -245h-161v5l187 253h141z" />
    <glyph glyph-name="uni2031" unicode="&#x2031;" horiz-adv-x="1697" 
d="M237 291q-88 0 -139.5 57t-51.5 151t51.5 151t139.5 57q86 0 137 -57t51 -151t-51 -151t-137 -57zM469 442v13l167 245h161v-5l-187 -253h-141zM237 394q34 0 52 28.5t18 76.5q0 49 -18 77.5t-52 28.5q-35 0 -53.5 -28.5t-18.5 -77.5q0 -48 18.5 -76.5t53.5 -28.5z
M660 -8q-88 0 -139.5 57t-51.5 151t51.5 151t139.5 57q86 0 137 -57t51 -151t-51 -151t-137 -57zM1064 -8q-88 0 -139.5 57t-51.5 151t51.5 151t139.5 57q86 0 137 -57t51 -151t-51 -151t-137 -57zM1468 -8q-88 0 -139.5 57t-51.5 151t51.5 151t139.5 57q86 0 137 -57
t51 -151t-51 -151t-137 -57zM660 95q34 0 52 28.5t18 76.5q0 49 -18 77.5t-52 28.5q-35 0 -53.5 -28.5t-18.5 -77.5q0 -48 18.5 -76.5t53.5 -28.5zM1064 95q34 0 52 28.5t18 76.5q0 49 -18 77.5t-52 28.5q-35 0 -53.5 -28.5t-18.5 -77.5q0 -48 18.5 -76.5t53.5 -28.5z
M1468 95q34 0 52 28.5t18 76.5q0 49 -18 77.5t-52 28.5q-35 0 -53.5 -28.5t-18.5 -77.5q0 -48 18.5 -76.5t53.5 -28.5zM433 258v-13l-167 -245h-161v5l187 253h141z" />
    <glyph glyph-name="guilsinglleft" unicode="&#x2039;" horiz-adv-x="380" 
d="M13 272v6l265 229l61 -61l-121 -171l121 -171l-61 -61z" />
    <glyph glyph-name="guilsinglright" unicode="&#x203a;" horiz-adv-x="380" 
d="M102 507l265 -229v-6l-265 -229l-61 61l121 171l-121 171z" />
    <glyph glyph-name="uni203D" unicode="&#x203d;" horiz-adv-x="564" 
d="M374 780v-78q138 -33 138 -170q0 -47 -18.5 -85.5t-44.5 -64t-52 -47.5t-44 -47t-17 -51h-154q-2 47 14 83.5t40.5 59t48.5 42t41.5 42.5t17.5 49q0 53 -69 53q-65 0 -92 -97l-151 37q13 76 58 126t114 68v80h170zM259 190q41 0 69.5 -28.5t28.5 -69.5t-28.5 -69.5
t-69.5 -28.5t-69.5 28.5t-28.5 69.5q0 40 28.5 69t69.5 29z" />
    <glyph glyph-name="fraction" unicode="&#x2044;" horiz-adv-x="106" 
d="M71 463v13l170 224h158v-5l-187 -232h-141zM35 237v-13l-170 -224h-158v5l187 232h141z" />
    <glyph glyph-name="uni2051" unicode="&#x2051;" horiz-adv-x="496" 
d="M195 376l-84 61l60 75l-93 26l32 98l92 -34l-5 97h103l-4 -97l90 34l32 -98l-93 -26l60 -75l-83 -61l-53 81zM296 213l90 34l32 -98l-93 -26l60 -75l-83 -61l-53 81l-54 -81l-84 61l60 75l-93 26l32 98l92 -34l-5 97h103z" />
    <glyph glyph-name="uni2055" unicode="&#x2055;" horiz-adv-x="699" 
d="M615 311q38 -21 49.5 -63t-10.5 -79q-21 -39 -63 -50.5t-79 10.5q-47 26 -52 77q-8 50 -22 58q-15 7 -35 -6q-27 -16 -27 -32q0 -17 39 -47q39 -32 39 -83q0 -44 -30 -74t-74 -30t-74.5 30.5t-30.5 73.5q0 51 40 83q39 30 39 47q0 12 -21 27q-27 18 -42 9t-21 -56
q-6 -51 -52 -77q-37 -22 -79 -10.5t-63 49.5q-23 37 -11.5 79.5t49.5 63.5q42 26 91 7q44 -20 60 -12q13 8 15 40q1 25 -15 35q-14 8 -60 -11q-48 -20 -91 6q-38 22 -49 64t11 80q21 37 63 48.5t79 -10.5q46 -26 52 -77q6 -46 21 -56q16 -9 43 9q20 13 20 27q0 17 -39 47
q-40 33 -40 84q0 43 31 73.5t74 30.5t73.5 -30.5t30.5 -73.5q0 -50 -39 -84q-39 -30 -39 -47q0 -6 4.5 -11.5t9 -9t16.5 -12.5q18 -13 32 -4q14 8 22 57q5 51 52 77q37 22 79 10.5t63 -49.5q22 -37 10.5 -79t-49.5 -64q-43 -26 -91 -6q-43 18 -60 10q-13 -9 -13 -36
q0 -29 13 -36q19 -9 60 10q49 19 91 -7z" />
    <glyph glyph-name="uni20A9" unicode="&#x20a9;" horiz-adv-x="1101" 
d="M957 447h116v-81h-144l-128 -366h-119l-125 366h-36l-125 -366h-119l-128 366h-121v81h93l-85 243v10h183l82 -253h87l82 253h138l82 -253h87l82 253h183v-10zM327 366l18 -54l17 54h-35zM716 366l17 -54l18 54h-35z" />
    <glyph glyph-name="uni20AA" unicode="&#x20aa;" horiz-adv-x="910" 
d="M214 550h409v-371h-145v241h-195q-25 0 -36 -13t-11 -42v-365h-155v404q0 146 133 146zM696 0h-409v371h145v-241h195q25 0 36 13t11 42v365h155v-404q0 -146 -133 -146z" />
    <glyph glyph-name="Euro" unicode="&#x20ac;" horiz-adv-x="625" 
d="M541 171l72 -118q-86 -56 -184 -56q-115 0 -205 67t-125 174h-89l30 96h42v16v16h-66l30 96h53q34 107 124.5 174.5t205.5 67.5q90 0 164 -34l-60 -128q-39 17 -101 17q-106 0 -155 -97h219l-45 -96h-198v-16v-16h182l-44 -96h-114q48 -96 155 -96q12 0 22 0.5t19 2.5
t15 3t14.5 5t12 5t13.5 6.5t13 6.5z" />
    <glyph glyph-name="uni20B9" unicode="&#x20b9;" horiz-adv-x="637" 
d="M563 700v-150h-108q12 -20 17 -40h91v-80h-88q-18 -159 -176 -178l244 -246v-6h-226l-242 249v139h132q73 0 88 42h-220v80h219q-16 40 -87 40h-132v150h488z" />
    <glyph glyph-name="uni20BA" unicode="&#x20ba;" horiz-adv-x="730" 
d="M527 358h165q-6 -173 -96.5 -265.5t-257.5 -92.5h-176v254l-99 -29v100l99 29v50l-99 -29v100l99 29v196h170v-147l146 42v-100l-146 -42v-50l146 42v-100l-146 -42v-155h18q91 0 132 52t45 158z" />
    <glyph glyph-name="uni20BD" unicode="&#x20bd;" horiz-adv-x="710" 
d="M436 254h-123v-36h259v-130h-259v-88h-170v88h-75v130h75v36h-75v145h75v301h293q109 0 173.5 -60.5t64.5 -162.5t-64.5 -162.5t-173.5 -60.5zM421 555h-108v-156h108q38 0 60.5 21t22.5 57t-22.5 57t-60.5 21z" />
    <glyph glyph-name="uni20BF" unicode="&#x20bf;" horiz-adv-x="643" 
d="M613 210q0 -88 -48.5 -137t-137.5 -55v-98h-107v97h-36v-97h-106v97h-102v667h102v96h106v-96h36v96h107v-98q78 -11 121 -60t43 -128q0 -88 -61 -128q39 -19 61 -61t22 -95zM364 553h-131v-131h131q76 0 76 65q0 66 -76 66zM233 148h147q80 0 80 78q0 76 -80 76h-147
v-154z" />
    <glyph glyph-name="uni2113" unicode="&#x2113;" horiz-adv-x="452" 
d="M369 87l28 -50q-59 -49 -130.5 -50t-120.5 40.5t-49 106.5v67q-12 -6 -46 -20l-23 63q34 12 69 30v248q0 185 151 185q73 0 103.5 -29.5t30.5 -100.5q0 -145 -145 -280v-153q0 -42 21.5 -63t52 -18.5t58.5 24.5zM277 624q-23 0 -31.5 -17.5t-8.5 -59.5v-170q79 82 79 175
q0 42 -8.5 57t-30.5 15z" />
    <glyph glyph-name="uni2116" unicode="&#x2116;" horiz-adv-x="1218" 
d="M709 700v-700h-123l-343 400v-400h-167v700h123l343 -400v400h167zM964 233q-86 0 -144 58t-58 146q0 86 58 143.5t144 57.5t144.5 -58t58.5 -143q0 -87 -58.5 -145.5t-144.5 -58.5zM964 377q26 0 42.5 17t16.5 43q0 24 -17 40.5t-42 16.5t-42 -16.5t-17 -40.5
q0 -26 16.5 -43t42.5 -17zM787 77v119h355v-119h-355z" />
    <glyph glyph-name="trademark" unicode="&#x2122;" horiz-adv-x="663" 
d="M30 700h234v-100h-65v-166h-105v166h-64v100zM475 478h-32l-43 93v-137h-105v266h124l40 -73l39 73h124v-266h-105v137z" />
    <glyph glyph-name="estimated" unicode="&#x212e;" horiz-adv-x="786" 
d="M393 708q169 0 263 -101.5t94 -289.5h-574v-178q85 -91 238 -91q162 0 255 126l43 -32q-90 -152 -298 -152q-176 0 -277 97t-101 260t97.5 262t259.5 99zM393 647q-134 0 -217 -89v-180h435v180q-84 89 -218 89z" />
    <glyph glyph-name="uni2135" unicode="&#x2135;" horiz-adv-x="725" 
d="M678 489l-315 -182l-316 182l316 185zM316 380l66 -2l4 5q-13 37 -13 62q73 -1 156 36l14 -10l20 8l1 6l-43 24q-13 7 -2 24l-34 15l-28 -18l21 -19q-57 -43 -103 -43q5 47 39 127q-20 7 -41.5 6.5t-29.5 -3.5q0 -3 2.5 -25t2.5 -33q-56 19 -96 -12q-16 -12 -37 -45
l-2 -1l-17 8q-15 7 -16 7l-30 -10l14 -16q1 0 6.5 1t10.5 0t10 -4l43 -25q20 4 28 10q3 5 8.5 19.5t12.5 26.5t17 18q23 15 45 5q-2 -7 -10.5 -25.5t-16 -37t-13.5 -37t-3.5 -30.5t14.5 -12zM353 289v-362l-315 183l-1 362zM687 110l-314 -183v363l315 182zM428 50l-6 -34
l22 7q3 12 14 19l43 27q8 24 8 29q-31 41 -36 65q-6 26 18 44q31 -33 109 -99l33 56v6q-38 4 -61 20q48 81 48 152l14 8l5 20l-4 3l-42 -23q-17 -9 -23 10l-30 -22v-31l28 7q7 -71 -15 -111q-25 19 -53 52t-35 46q-17 -10 -35.5 -31t-5.5 -27q38 -18 53 -27q-38 -31 -38 -88
q0 -22 19 -53l-1 -6l-15 -9q-14 -8 -14 -10zM266 16l34 17l-1 7q-42 54 -64 92q16 7 27.5 21t16 30t6 25.5t1.5 15.5l14 -9l6 15l-4 7l-43 24q-19 11 -25 39l-29 11v-31l28 -24q4 -23 1.5 -53t-16.5 -37q-18 32 -38 74.5t-36.5 80.5t-17.5 41q-16 9 -35 -1q-9 -5 -5 -11
q37 -55 55 -85q-20 7 -32 -4t-8 -39t20 -75l-1 -3l-16 8q-13 7 -14 7l-7 -26l22 -18q0 4 4.5 5.5t11.5 -2.5l45 -27q7 16 7 21q-37 103 -37 105q-3 16 0.5 22.5t17.5 -0.5q18 -38 112 -223z" />
    <glyph glyph-name="uni2136" unicode="&#x2136;" horiz-adv-x="1000" 
d="M954 525q28 -12 23 -34q-6 -29 -36 -18q-249 87 -568 60q-4 -48 7 -76q4 -10 -3 -19t-19 -13q-23 -7 -30 21q-7 31 -7 76q-61 -87 -79 -97q-25 -14 -39 -3q-16 11 -2 36q8 14 63 68q-54 -6 -166 -23q-25 -3 -31 19q-8 28 23 33q23 3 107 21.5t118 28.5q10 17 23.5 48
t26 60.5t15.5 36.5q11 23 33 14q19 -8 15 -31q-6 -34 -41 -103q94 37 117 54q20 14 33 -6q11 -17 -6 -34q-13 -13 -116 -55q347 18 539 -64zM687 467q31 -5 52 -23.5t20 -43.5q-2 -66 -90.5 -178.5t-190.5 -201.5t-155 -112q-68 -29 -99 26q-27 47 6.5 133t103.5 160
q57 60 117.5 87t91.5 -2q13 -13 9 -34.5t-13.5 -41.5t-25.5 -41t-26.5 -33t-16.5 -17q-10 -10 -23.5 -10.5t-22.5 7.5q-23 21 5 49q45 46 62 77q-75 -27 -140 -110.5t-77 -157.5q-4 -22 4 -34.5t30 -0.5q96 51 219.5 177t161.5 215q12 23 6.5 38t-35.5 18q-83 8 -177 -32.5
t-158 -95.5q-11 -10 -25 -8.5t-21 13.5q-14 24 11 44q23 17 54 36.5t88 48.5t125 43t130 5z" />
    <glyph glyph-name="uni2137" unicode="&#x2137;" horiz-adv-x="757" 
d="M481 515q199 -111 199 -291q0 -103 -83 -182.5t-214 -79.5t-213.5 79.5t-82.5 182.5q0 181 199 291q-133 39 -193 50l19 75q131 -28 271 -82q138 54 271 82l20 -75q-64 -11 -193 -50zM383 37q94 0 157.5 56t63.5 134q0 164 -221 254q-220 -90 -220 -254q0 -78 63 -134
t157 -56zM383 305q-23 0 -40 17.5t-17 40.5q0 22 17 39t40 17t40 -17t17 -39q0 -23 -17 -40.5t-40 -17.5zM215 250l30 65q80 -40 138.5 -40t138.5 40l30 -65q-55 -28 -99 -38l57 -73l-62 -45l-65 87l-65 -87l-61 45l56 73q-42 11 -98 38z" />
    <glyph glyph-name="uni2150" unicode="&#x2150;" horiz-adv-x="800" 
d="M192 396v142l-57 -51l-67 72l162 141h81v-304h76v-96h-292v96h97zM763 700v-5l-187 -232h-141v13l170 224h158zM465 304v96h319v-16l-158 -384h-124l125 304h-162zM71 0v5l187 232h141v-13l-170 -224h-158z" />
    <glyph glyph-name="uni2151" unicode="&#x2151;" horiz-adv-x="824" 
d="M197 396v142l-57 -51l-67 72l162 141h81v-304h76v-96h-292v96h97zM760 700v-5l-187 -232h-141v13l170 224h158zM631 408q80 0 128.5 -41.5t48.5 -107.5q0 -68 -49 -126l-112 -133h-146v3l115 126q-8 -1 -24 -1q-57 0 -97 35t-40 96q0 66 48 107.5t128 41.5zM631 204
q26 0 43.5 15.5t17.5 38.5t-17.5 38.5t-43.5 15.5t-43 -15.5t-17 -38.5t17 -38.5t43 -15.5zM68 0v5l187 232h141v-13l-170 -224h-158z" />
    <glyph glyph-name="uni2152" unicode="&#x2152;" horiz-adv-x="1165" 
d="M194 396v142l-57 -51l-67 72l162 141h81v-304h76v-96h-292v96h97zM760 700v-5l-187 -232h-141v13l170 224h158zM960 408q86 0 137 -57t51 -151t-51 -151t-137 -57q-88 0 -139.5 57t-51.5 151t51.5 151t139.5 57zM607 400h81v-304h76v-96h-292v96h97v142l-57 -51l-67 72z
M960 95q34 0 52 28.5t18 76.5q0 49 -18 77.5t-52 28.5q-35 0 -53.5 -28.5t-18.5 -77.5q0 -48 18.5 -76.5t53.5 -28.5zM68 0v5l187 232h141v-13l-170 -224h-158z" />
    <glyph glyph-name="uni2153" unicode="&#x2153;" horiz-adv-x="837" 
d="M192 396v142l-57 -51l-67 72l162 141h81v-304h76v-96h-292v96h97zM763 700v-5l-187 -232h-141v13l170 224h158zM732 214q32 -9 52 -36t20 -64q0 -56 -45.5 -88.5t-136.5 -32.5q-62 0 -108 22.5t-64 50.5l80 60q34 -36 100 -36q28 0 44.5 11t16.5 31q0 37 -82 37h-46v82
h22q86 0 86 31q0 29 -51 29q-59 0 -94 -43l-69 60q53 80 162 80q82 0 124 -30t42 -80q0 -57 -53 -84zM71 0v5l187 232h141v-13l-170 -224h-158z" />
    <glyph glyph-name="uni2154" unicode="&#x2154;" horiz-adv-x="881" 
d="M74 298v19l130 133q53 54 70 77t17 42q0 16 -12 26t-35 10q-55 0 -64 -65l-115 20q11 75 59.5 110.5t119.5 35.5q75 0 120.5 -37.5t45.5 -93.5q0 -76 -94 -164l-17 -16h121v-97h-346zM802 700v-5l-187 -232h-141v13l170 224h158zM776 214q32 -9 52 -36t20 -64
q0 -56 -45.5 -88.5t-136.5 -32.5q-62 0 -108 22.5t-64 50.5l80 60q34 -36 100 -36q28 0 44.5 11t16.5 31q0 37 -82 37h-46v82h22q86 0 86 31q0 29 -51 29q-59 0 -94 -43l-69 60q53 80 162 80q82 0 124 -30t42 -80q0 -57 -53 -84zM110 0v5l187 232h141v-13l-170 -224h-158z
" />
    <glyph glyph-name="uni2155" unicode="&#x2155;" horiz-adv-x="833" 
d="M200 396v142l-57 -51l-67 72l162 141h81v-304h76v-96h-292v96h97zM760 700v-5l-187 -232h-141v13l170 224h158zM593 304l-4 -36q98 7 144.5 -28t46.5 -101q0 -67 -47.5 -107t-131.5 -40q-88 0 -140 25l35 92q43 -20 85 -20q86 0 86 50q0 72 -193 39l17 222h263v-96h-161z
M68 0v5l187 232h141v-13l-170 -224h-158z" />
    <glyph glyph-name="uni2156" unicode="&#x2156;" horiz-adv-x="870" 
d="M74 298v19l130 133q53 54 70 77t17 42q0 16 -12 26t-35 10q-55 0 -64 -65l-115 20q11 75 59.5 110.5t119.5 35.5q75 0 120.5 -37.5t45.5 -93.5q0 -76 -94 -164l-17 -16h121v-97h-346zM785 700v-5l-187 -232h-141v13l170 224h158zM630 304l-4 -36q98 7 144.5 -28
t46.5 -101q0 -67 -47.5 -107t-131.5 -40q-88 0 -140 25l35 92q43 -20 85 -20q86 0 86 50q0 72 -193 39l17 222h263v-96h-161zM93 0v5l187 232h141v-13l-170 -224h-158z" />
    <glyph glyph-name="uni2157" unicode="&#x2157;" horiz-adv-x="876" 
d="M423 412q0 -56 -45.5 -88.5t-136.5 -32.5q-62 0 -108 22.5t-64 50.5l80 60q34 -36 100 -36q28 0 44.5 11t16.5 31q0 37 -82 37h-46v82h22q86 0 86 31q0 29 -51 29q-59 0 -94 -43l-69 60q53 80 162 80q82 0 124 -30t42 -80q0 -57 -53 -84q32 -9 52 -36t20 -64zM803 700v-5
l-187 -232h-141v13l170 224h158zM636 304l-4 -36q98 7 144.5 -28t46.5 -101q0 -67 -47.5 -107t-131.5 -40q-88 0 -140 25l35 92q43 -20 85 -20q86 0 86 50q0 72 -193 39l17 222h263v-96h-161zM111 0v5l187 232h141v-13l-170 -224h-158z" />
    <glyph glyph-name="uni2158" unicode="&#x2158;" horiz-adv-x="887" 
d="M384 300h-114v57h-211v89l221 254h104v-250h46v-93h-46v-57zM815 700v-5l-187 -232h-141v13l170 224h158zM273 555h-1l-91 -105h92v105zM647 304l-4 -36q98 7 144.5 -28t46.5 -101q0 -67 -47.5 -107t-131.5 -40q-88 0 -140 25l35 92q43 -20 85 -20q86 0 86 50
q0 72 -193 39l17 222h263v-96h-161zM123 0v5l187 232h141v-13l-170 -224h-158z" />
    <glyph glyph-name="uni2159" unicode="&#x2159;" horiz-adv-x="837" 
d="M241 700h81v-304h76v-96h-292v96h97v142l-57 -51l-67 72zM760 700v-5l-187 -232h-141v13l170 224h158zM662 272q57 0 97 -35t40 -96q0 -66 -48 -107.5t-128 -41.5t-128.5 41.5t-48.5 107.5q0 68 49 126l112 133h146v-3l-115 -126q8 1 24 1zM68 0v5l187 232h141v-13
l-170 -224h-158zM623 88q26 0 43 15.5t17 38.5t-17 38.5t-43 15.5t-43.5 -15.5t-17.5 -38.5t17.5 -38.5t43.5 -15.5z" />
    <glyph glyph-name="uni215A" unicode="&#x215a;" horiz-adv-x="871" 
d="M201 389q86 0 86 50q0 72 -193 39l17 222h263v-96h-161l-4 -36q98 7 144.5 -28t46.5 -101q0 -67 -47.5 -107t-131.5 -40q-88 0 -140 25l35 92q43 -20 85 -20zM799 700v-5l-187 -232h-141v13l170 224h158zM696 272q57 0 97 -35t40 -96q0 -66 -48 -107.5t-128 -41.5
t-128.5 41.5t-48.5 107.5q0 68 49 126l112 133h146v-3l-115 -126q8 1 24 1zM107 0v5l187 232h141v-13l-170 -224h-158zM657 88q26 0 43 15.5t17 38.5t-17 38.5t-43 15.5t-43.5 -15.5t-17.5 -38.5t17.5 -38.5t43.5 -15.5z" />
    <glyph glyph-name="oneeighth" unicode="&#x215b;" horiz-adv-x="821" 
d="M192 396v142l-57 -51l-67 72l162 141h81v-304h76v-96h-292v96h97zM762 700v-5l-187 -232h-141v13l170 224h158zM731 220q70 -36 70 -104q0 -55 -49.5 -90t-127.5 -35q-79 0 -129 35t-50 90q0 68 71 104q-46 30 -46 80q0 48 43 78.5t111 30.5q67 0 109.5 -30.5t42.5 -78.5
q0 -49 -45 -80zM625 323q-19 0 -32.5 -10.5t-13.5 -25.5q0 -16 13.5 -26t32.5 -10t31 10t12 26q0 15 -12 25.5t-31 10.5zM70 0v5l187 232h141v-13l-170 -224h-158zM625 81q27 0 44 14t17 35t-17 34.5t-44 13.5q-28 0 -46 -13.5t-18 -34.5t18 -35t46 -14z" />
    <glyph glyph-name="threeeighths" unicode="&#x215c;" horiz-adv-x="863" 
d="M423 412q0 -56 -45.5 -88.5t-136.5 -32.5q-62 0 -108 22.5t-64 50.5l80 60q34 -36 100 -36q28 0 44.5 11t16.5 31q0 37 -82 37h-46v82h22q86 0 86 31q0 29 -51 29q-59 0 -94 -43l-69 60q53 80 162 80q82 0 124 -30t42 -80q0 -57 -53 -84q32 -9 52 -36t20 -64zM798 700v-5
l-187 -232h-141v13l170 224h158zM773 220q70 -36 70 -104q0 -55 -49.5 -90t-127.5 -35q-79 0 -129 35t-50 90q0 68 71 104q-46 30 -46 80q0 48 43 78.5t111 30.5q67 0 109.5 -30.5t42.5 -78.5q0 -49 -45 -80zM667 323q-19 0 -32.5 -10.5t-13.5 -25.5q0 -16 13.5 -26
t32.5 -10t31 10t12 26q0 15 -12 25.5t-31 10.5zM106 0v5l187 232h141v-13l-170 -224h-158zM667 81q27 0 44 14t17 35t-17 34.5t-44 13.5q-28 0 -46 -13.5t-18 -34.5t18 -35t46 -14z" />
    <glyph glyph-name="fiveeighths" unicode="&#x215d;" horiz-adv-x="854" 
d="M201 389q86 0 86 50q0 72 -193 39l17 222h263v-96h-161l-4 -36q98 7 144.5 -28t46.5 -101q0 -67 -47.5 -107t-131.5 -40q-88 0 -140 25l35 92q43 -20 85 -20zM786 700v-5l-187 -232h-141v13l170 224h158zM764 220q70 -36 70 -104q0 -55 -49.5 -90t-127.5 -35
q-79 0 -129 35t-50 90q0 68 71 104q-46 30 -46 80q0 48 43 78.5t111 30.5q67 0 109.5 -30.5t42.5 -78.5q0 -49 -45 -80zM658 323q-19 0 -32.5 -10.5t-13.5 -25.5q0 -16 13.5 -26t32.5 -10t31 10t12 26q0 15 -12 25.5t-31 10.5zM94 0v5l187 232h141v-13l-170 -224h-158z
M658 81q27 0 44 14t17 35t-17 34.5t-44 13.5q-28 0 -46 -13.5t-18 -34.5t18 -35t46 -14z" />
    <glyph glyph-name="seveneighths" unicode="&#x215e;" horiz-adv-x="803" 
d="M228 604h-162v96h319v-16l-158 -384h-124zM725 700v-5l-187 -232h-141v13l170 224h158zM713 220q70 -36 70 -104q0 -55 -49.5 -90t-127.5 -35q-79 0 -129 35t-50 90q0 68 71 104q-46 30 -46 80q0 48 43 78.5t111 30.5q67 0 109.5 -30.5t42.5 -78.5q0 -49 -45 -80z
M607 323q-19 0 -32.5 -10.5t-13.5 -25.5q0 -16 13.5 -26t32.5 -10t31 10t12 26q0 15 -12 25.5t-31 10.5zM33 0v5l187 232h141v-13l-170 -224h-158zM607 81q27 0 44 14t17 35t-17 34.5t-44 13.5q-28 0 -46 -13.5t-18 -34.5t18 -35t46 -14z" />
    <glyph glyph-name="uni215F" unicode="&#x215f;" horiz-adv-x="467" 
d="M239 709h81v-304h76v-96h-292v96h97v142l-57 -51l-67 72zM432 485l170 224h158v-5l-187 -232h-141v13zM68 9v5l187 232h141v-13l-170 -224h-158z" />
    <glyph glyph-name="uni2189" unicode="&#x2189;" horiz-adv-x="897" 
d="M438 501q0 -94 -51 -151t-137 -57q-88 0 -139.5 57t-51.5 151t51.5 151t139.5 57q86 0 137 -57t51 -151zM827 700v-5l-187 -232h-141v13l170 224h158zM178 501q0 -48 18.5 -76.5t53.5 -28.5q34 0 52 28.5t18 76.5q0 49 -18 77.5t-52 28.5q-35 0 -53.5 -28.5t-18.5 -77.5z
M792 214q32 -9 52 -36t20 -64q0 -56 -45.5 -88.5t-136.5 -32.5q-62 0 -108 22.5t-64 50.5l80 60q34 -36 100 -36q28 0 44.5 11t16.5 31q0 37 -82 37h-46v82h22q86 0 86 31q0 29 -51 29q-59 0 -94 -43l-69 60q53 80 162 80q82 0 124 -30t42 -80q0 -57 -53 -84zM135 0v5
l187 232h141v-13l-170 -224h-158z" />
    <glyph glyph-name="arrowleft" unicode="&#x2190;" horiz-adv-x="835" 
d="M333 375h443v-144h-443l114 -109l-103 -103l-285 284l285 285l103 -103z" />
    <glyph glyph-name="arrowup" unicode="&#x2191;" horiz-adv-x="625" 
d="M313 717l284 -285l-103 -103l-109 114v-443h-144v443l-110 -114l-103 103z" />
    <glyph glyph-name="arrowright" unicode="&#x2192;" horiz-adv-x="835" 
d="M388 485l103 103l285 -285l-285 -284l-103 103l114 109h-443v144h443z" />
    <glyph glyph-name="arrowdown" unicode="&#x2193;" horiz-adv-x="625" 
d="M384 257l110 114l103 -103l-285 -285l-284 285l103 103l109 -114v443h144v-443z" />
    <glyph glyph-name="arrowboth" unicode="&#x2194;" horiz-adv-x="1106" 
d="M659 485l103 103l285 -285l-285 -284l-103 103l116 111h-444l116 -111l-103 -103l-285 284l285 285l103 -103l-116 -112h444z" />
    <glyph glyph-name="arrowupdn" unicode="&#x2195;" horiz-adv-x="625" 
d="M382 508v-416l112 118l103 -103l-285 -287l-284 287l103 103l111 -117v414l-111 -117l-103 103l284 287l285 -287l-103 -103z" />
    <glyph glyph-name="uni2196" unicode="&#x2196;" horiz-adv-x="685" 
d="M328 557l313 -314l-102 -101l-313 313l3 -158h-145l-1 403h403v-146z" />
    <glyph glyph-name="uni2197" unicode="&#x2197;" horiz-adv-x="685" 
d="M199 555v146h403l-1 -403h-145l3 158l-313 -313l-102 101l313 314z" />
    <glyph glyph-name="uni2198" unicode="&#x2198;" horiz-adv-x="685" 
d="M602 -1h-403v146l158 -3l-313 314l102 101l313 -313l-3 158h145z" />
    <glyph glyph-name="uni2199" unicode="&#x2199;" horiz-adv-x="685" 
d="M539 558l102 -101l-313 -314l158 3v-146h-403l1 403h145l-3 -158z" />
    <glyph glyph-name="uni21AF" unicode="&#x21af;" horiz-adv-x="473" 
d="M318 152l85 63l66 -95l-269 -186l-176 253l97 68l71 -104l51 197l-171 -25l92 387h134l-65 -247l166 20z" />
    <glyph glyph-name="arrowdbldown" unicode="&#x21d3;" horiz-adv-x="763" 
d="M248 750h116v-598h-70l-212 256l99 66l67 -96v372zM399 152v598h116v-372l67 96l99 -66l-212 -256h-70zM13 0v120h737v-120h-737z" />
    <glyph glyph-name="uni21DE" unicode="&#x21de;" horiz-adv-x="625" 
d="M597 432l-103 -103l-109 114v-140h96v-94h-96v-39h96v-94h-96v-76h-144v76h-96v94h96v39h-96v94h96v140l-110 -114l-103 103l285 285z" />
    <glyph glyph-name="uni21DF" unicode="&#x21df;" horiz-adv-x="625" 
d="M385 257l109 114l103 -103l-284 -285l-285 285l103 103l110 -114v140h-96v94h96v39h-96v94h96v76h144v-76h96v-94h-96v-39h96v-94h-96v-140z" />
    <glyph glyph-name="uni21E7" unicode="&#x21e7;" horiz-adv-x="821" 
d="M411 715l371 -410v-3h-187v-302h-368v302h-188v2zM480 105v287h71l-140 145l-140 -145h71v-287h138z" />
    <glyph glyph-name="uni21E9" unicode="&#x21e9;" horiz-adv-x="821" 
d="M782 398v-3l-371 -410l-372 411v2h188v302h368v-302h187zM551 308h-71v287h-138v-287h-71l140 -145z" />
    <glyph glyph-name="uni21EA" unicode="&#x21ea;" horiz-adv-x="821" 
d="M39 304l372 411l371 -410v-3h-187v-102h-368v102h-188v2zM481 302v90h72l-142 147l-142 -147h72v-90h140zM595 0h-368v172h368v-172z" />
    <glyph glyph-name="uni21F1" unicode="&#x21f1;" horiz-adv-x="760" 
d="M68 750h580v-60h-519v-540h-61v600zM415 490l270 -270l-87 -87l-270 270v-118h-111v315h315v-110h-117z" />
    <glyph glyph-name="partialdiff" unicode="&#x2202;" horiz-adv-x="599" 
d="M93 607l29 149q205 -21 327.5 -153t122.5 -318q0 -135 -75 -215t-197 -80q-119 0 -197.5 72t-78.5 180q0 106 66 172t184 66q45 0 87 -16q-35 61 -110 98t-158 45zM298 138q46 0 77 31t31 77t-31 77t-77 31t-77 -31t-31 -77t31 -77t77 -31z" />
    <glyph glyph-name="emptyset" unicode="&#x2205;" horiz-adv-x="796" 
d="M752 700l-82 -106q90 -103 90 -244q0 -155 -104 -258.5t-258 -103.5q-89 0 -165 37l-20 -25h-169l82 106q-90 103 -90 244q0 155 104 258.5t258 103.5q92 0 166 -38l20 26h168zM206 350q0 -57 27 -106l229 297q-31 11 -64 11q-82 0 -137 -57.5t-55 -144.5zM398 148
q82 0 137 57.5t55 144.5q0 56 -26 105l-229 -297q33 -10 63 -10z" />
    <glyph glyph-name="uni2206" unicode="&#x2206;" horiz-adv-x="680" 
d="M257 700h166l264 -700h-694zM340 502l-127 -364h254z" />
    <glyph glyph-name="product" unicode="&#x220f;" horiz-adv-x="796" 
d="M76 -200v950h644v-950h-170v805h-304v-805h-170z" />
    <glyph glyph-name="summation" unicode="&#x2211;" horiz-adv-x="624" 
d="M23 750h556v-145h-269l211 -330l-211 -330h269v-145h-556v10l299 465l-299 465v10z" />
    <glyph glyph-name="minus" unicode="&#x2212;" horiz-adv-x="508" 
d="M449 230h-390v140h390v-140z" />
    <glyph glyph-name="radical" unicode="&#x221a;" horiz-adv-x="729" 
d="M420 -200h-202l-196 478l161 58l127 -309l219 723h177z" />
    <glyph glyph-name="infinity" unicode="&#x221e;" horiz-adv-x="869" 
d="M628 520q92 0 151 -62.5t59 -157.5t-59 -157.5t-151 -62.5q-102 0 -193 115q-91 -115 -194 -115q-92 0 -151 62.5t-59 157.5t59 157.5t151 62.5q103 0 194 -115q91 115 193 115zM252 222q27 0 51.5 16.5t62.5 61.5q-38 45 -62.5 61.5t-51.5 16.5q-31 0 -51.5 -22
t-20.5 -56t20.5 -56t51.5 -22zM617 222q31 0 51.5 22t20.5 56t-20.5 56t-51.5 22q-26 0 -50.5 -16.5t-61.5 -61.5q37 -45 61.5 -61.5t50.5 -16.5z" />
    <glyph glyph-name="integral" unicode="&#x222b;" horiz-adv-x="418" 
d="M433 741l-35 -128q-34 18 -60.5 9t-29.5 -51l-39 -602q-9 -131 -79 -174t-205 16l35 128q34 -18 61 -9t30 51l38 602q17 268 284 158z" />
    <glyph glyph-name="approxequal" unicode="&#x2248;" horiz-adv-x="583" 
d="M491 476v-124q-46 -42 -109 -42q-44 0 -94 35t-86 35q-59 0 -110 -46v121q48 44 110 44q44 0 93.5 -35t86.5 -35q60 0 109 47zM491 266v-124q-46 -42 -109 -42q-44 0 -94 35t-86 35q-59 0 -110 -46v121q48 44 110 44q44 0 93.5 -35t86.5 -35q60 0 109 47z" />
    <glyph glyph-name="notequal" unicode="&#x2260;" horiz-adv-x="604" 
d="M535 482v-130h-131l-52 -103h183v-130h-249l-60 -119h-152l60 119h-65v130h131l52 103h-183v130h248l60 118h152l-60 -118h66z" />
    <glyph glyph-name="lessequal" unicode="&#x2264;" horiz-adv-x="561" 
d="M473 202l-411 178v132l411 179v-142l-259 -103l259 -102v-142zM473 151v-133h-413v133h413z" />
    <glyph glyph-name="greaterequal" unicode="&#x2265;" horiz-adv-x="561" 
d="M499 512v-132l-411 -178v142l259 102l-259 103v142zM501 18h-413v133h413v-133z" />
    <glyph glyph-name="uni2318" unicode="&#x2318;" horiz-adv-x="791" 
d="M551 290h54q64 0 108 -43.5t44 -106.5t-44 -106.5t-108 -43.5t-108.5 43.5t-44.5 106.5v56h-113v-56q0 -63 -44.5 -106.5t-108.5 -43.5t-108 43.5t-44 106.5t44 106.5t108 43.5h54v119h-54q-64 0 -108 43.5t-44 106.5q0 64 44 107.5t108 43.5q65 0 109 -43.5t44 -107.5
v-55h113v55q0 64 44 107.5t109 43.5q64 0 108 -43.5t44 -107.5q0 -63 -44 -106.5t-108 -43.5h-54v-119zM186 504h54v55q0 23 -16 39.5t-38 16.5t-37.5 -16.5t-15.5 -39.5t15.5 -39t37.5 -16zM551 559v-55h54q22 0 37.5 16t15.5 39t-15.5 39.5t-37.5 16.5t-38 -16.5
t-16 -39.5zM452 409h-113v-119h113v119zM240 140v56h-54q-22 0 -37.5 -16.5t-15.5 -39.5t15.5 -39t37.5 -16q23 0 38.5 16t15.5 39zM605 196h-54v-56q0 -23 15.5 -39t38.5 -16q22 0 37.5 16t15.5 39t-15.5 39.5t-37.5 16.5z" />
    <glyph glyph-name="uni2325" unicode="&#x2325;" horiz-adv-x="802" 
d="M575 140h157v-140h-235l-282 560h-157v140h235zM732 560h-262v140h262v-140z" />
    <glyph glyph-name="uni2326" unicode="&#x2326;" horiz-adv-x="1029" 
d="M77 700h643l281 -350l-281 -350h-643v700zM190 103h467l202 247l-202 247h-467v-494zM676 469l-118 -118l119 -120l-86 -86l-119 120l-120 -120l-86 86l120 120l-119 118l86 86l119 -118l118 118z" />
    <glyph glyph-name="uni232B" unicode="&#x232b;" horiz-adv-x="1029" 
d="M28 350l281 350h643v-700h-643zM372 103h467v494h-467l-202 -247zM472 351l-119 118l86 86l119 -118l118 118l86 -86l-118 -118l119 -120l-86 -86l-119 120l-120 -120l-86 86z" />
    <glyph glyph-name="uni2380" unicode="&#x2380;" horiz-adv-x="628" 
d="M120 464q0 56 42.5 92t108.5 36q48 0 86 -24q-7 66 -83 66q-51 0 -105 -30l-35 74q70 44 159 44q174 0 174 -165v-215h-110v17q-37 -24 -86 -24q-66 0 -108.5 36.5t-42.5 92.5zM361 465q0 23 -18.5 37.5t-47.5 14.5t-48 -14.5t-19 -37.5t19 -37.5t48 -14.5t47.5 14.5
t18.5 37.5zM314 154l144 162l90 -86l-232 -239h-4l-232 240l91 85z" />
    <glyph glyph-name="uni2387" unicode="&#x2387;" horiz-adv-x="802" 
d="M732 700v-140h-157l-282 -560h-235v140h157l282 560h235zM470 0v140h262v-140h-262z" />
    <glyph glyph-name="uni23CE" unicode="&#x23ce;" horiz-adv-x="860" 
d="M634 349v251h121v-278q0 -84 -34.5 -116t-120.5 -32h-349l136 -126l-87 -87l-279 275l279 278l87 -87l-141 -133h328q60 0 60 55z" />
    <glyph glyph-name="uni2400" unicode="&#x2400;" horiz-adv-x="778" 
d="M679 644l54 -54l-128 -128q54 -71 54 -162q0 -112 -79 -191t-191 -79q-91 0 -162 54l-128 -128l-54 54l128 128q-54 71 -54 162q0 112 79 191t191 79q91 0 162 -54zM208 300q0 -54 28 -99l252 252q-47 29 -99 29q-75 0 -128.5 -53.5t-52.5 -128.5zM570 300q0 54 -28 99
l-252 -252q47 -29 99 -29q75 0 128.5 53.5t52.5 128.5z" />
    <glyph glyph-name="uni24D8" unicode="&#x24d8;" horiz-adv-x="803" 
d="M401 -5q-149 0 -252 102t-103 252t103 252.5t252 102.5q150 0 253 -102.5t103 -252.5t-103 -252t-253 -102zM401 108q101 0 170 70t69 171q0 102 -69 172t-170 70q-100 0 -169 -70.5t-69 -171.5t69 -171t169 -70zM401 415q-35 0 -57 18.5t-22 49.5t22 50t57 19t57.5 -19
t22.5 -50t-22.5 -49.5t-57.5 -18.5zM472 161h-142v220h142v-220z" />
    <glyph glyph-name="uni24FF" unicode="&#x24ff;" horiz-adv-x="803" 
d="M401 -5q150 0 253 102t103 252t-103 252.5t-253 102.5q-149 0 -252 -102.5t-103 -252.5t103 -252t252 -102zM403 121q-94 0 -149.5 63t-55.5 166t55.5 165.5t149.5 62.5q93 0 147.5 -62.5t54.5 -165.5q0 -104 -54.5 -166.5t-147.5 -62.5zM403 234q37 0 57.5 31.5
t20.5 84.5t-20.5 84t-57.5 31q-39 0 -60 -31t-21 -84q0 -54 21 -85t60 -31z" />
    <glyph glyph-name="filledbox" unicode="&#x25a0;" horiz-adv-x="720" 
d="M60 0v600h600v-600h-600z" />
    <glyph glyph-name="uni25A1" unicode="&#x25a1;" horiz-adv-x="720" 
d="M60 0v600h600v-600h-600zM548 492h-375v-383h375v383z" />
    <glyph glyph-name="uni25A4" unicode="&#x25a4;" horiz-adv-x="834" 
d="M67 0v700h700v-700h-700zM118 650v-45h598v45h-598zM118 513h598v45h-598v-45zM118 420h598v46h-598v-46zM118 327h598v46h-598v-46zM118 234h598v46h-598v-46zM118 141h598v46h-598v-46zM118 50h598v44h-598v-44z" />
    <glyph glyph-name="triagup" unicode="&#x25b2;" horiz-adv-x="768" 
d="M758 0h-748l374 663z" />
    <glyph glyph-name="uni25B3" unicode="&#x25b3;" horiz-adv-x="768" 
d="M758 0h-748l374 663zM384 429l-178 -316h357z" />
    <glyph glyph-name="triagdn" unicode="&#x25bc;" horiz-adv-x="768" 
d="M384 -63l-374 663h748z" />
    <glyph glyph-name="uni25BD" unicode="&#x25bd;" horiz-adv-x="768" 
d="M384 -63l-374 663h748zM563 487h-357l178 -316z" />
    <glyph glyph-name="uni25C6" unicode="&#x25c6;" horiz-adv-x="600" 
d="M565 350l-265 -265l-265 265l265 265z" />
    <glyph glyph-name="uni25C7" unicode="&#x25c7;" horiz-adv-x="600" 
d="M565 350l-265 -265l-265 265l265 265zM181 350l119 -119l119 119l-119 119z" />
    <glyph glyph-name="lozenge" unicode="&#x25ca;" horiz-adv-x="590" 
d="M16 350l278 407l280 -407l-280 -406zM151 350l143 -211l144 211l-144 211z" />
    <glyph glyph-name="circle" unicode="&#x25cb;" horiz-adv-x="803" 
d="M401 -5q-149 0 -252 102t-103 252t103 252.5t252 102.5q150 0 253 -102.5t103 -252.5t-103 -252t-253 -102zM401 108q101 0 170 70t69 171q0 102 -69 172t-170 70q-100 0 -169 -70.5t-69 -171.5t69 -171t169 -70z" />
    <glyph glyph-name="uni25CC" unicode="&#x25cc;" horiz-adv-x="802" 
d="M401 571q-28 0 -47 19.5t-19 47.5t19 47t47 19t47 -19t19 -47t-19 -47.5t-47 -19.5zM130 553q0 28 19.5 47t47.5 19t47 -19t19 -47t-19 -47t-47 -19t-47.5 19t-19.5 47zM538 553q0 28 19.5 47t47.5 19t47 -19t19 -47t-19 -47t-47 -19t-47.5 19t-19.5 47zM112 282
q-28 0 -47 19.5t-19 47.5t19 47t47 19t47 -19t19 -47t-19 -47.5t-47 -19.5zM690 282q-28 0 -47 19.5t-19 47.5t19 47t47 19t47 -19t19 -47t-19 -47.5t-47 -19.5zM130 145q0 28 19.5 47t47.5 19t47 -19t19 -47t-19 -47t-47 -19t-47.5 19t-19.5 47zM538 144q0 28 19.5 47
t47.5 19t47 -19t19 -47t-19 -47t-47 -19t-47.5 19t-19.5 47zM401 -6q-28 0 -47 19.5t-19 47.5t19 47t47 19t47 -19t19 -47t-19 -47.5t-47 -19.5z" />
    <glyph glyph-name="uni25CF" unicode="&#x25cf;" horiz-adv-x="803" 
d="M401 -5q150 0 253 102t103 252t-103 252.5t-253 102.5q-149 0 -252 -102.5t-103 -252.5t103 -252t252 -102z" />
    <glyph glyph-name="uni2605" unicode="&#x2605;" horiz-adv-x="824" 
d="M411 108l-260 -161l71 298l-232 198l304 23l118 284l117 -284l305 -23l-234 -198l74 -298z" />
    <glyph glyph-name="uni2606" unicode="&#x2606;" horiz-adv-x="824" 
d="M411 108l-260 -161l71 298l-232 198l304 23l118 284l117 -284l305 -23l-234 -198l74 -298zM339 284l-29 -118l104 64l103 -64l-28 118l91 78l-121 9l-45 112l-45 -112l-121 -9z" />
    <glyph glyph-name="uni2610" unicode="&#x2610;" horiz-adv-x="720" 
d="M60 0v600h600v-600h-600zM548 492h-375v-383h375v383z" />
    <glyph glyph-name="uni2611" unicode="&#x2611;" horiz-adv-x="720" 
d="M60 0v600h600v-600h-600zM548 492h-375v-383h375v383zM420 146h-121l-104 175l94 58l61 -108l51 182h112z" />
    <glyph glyph-name="uni2612" unicode="&#x2612;" horiz-adv-x="720" 
d="M60 0v600h600v-600h-600zM173 109h375v383h-375v-383zM359 226l-84 -84l-73 73l84 84l-84 84l73 73l84 -84l84 84l73 -73l-84 -84l84 -84l-73 -73z" />
    <glyph glyph-name="uni262E" unicode="&#x262e;" horiz-adv-x="803" 
d="M401 704q150 0 253 -102.5t103 -252.5t-103 -252t-253 -102q-149 0 -252 102t-103 252t103 252.5t252 102.5zM347 409v176q-81 -19 -132.5 -84.5t-51.5 -151.5q0 -37 11 -73zM640 349q0 84 -48.5 148.5t-126.5 85.5v-174l166 -128q9 33 9 68zM347 274l-118 -93
q49 -52 118 -67v160zM465 274v-158q65 18 113 69z" />
    <glyph glyph-name="uni262F" unicode="&#x262f;" horiz-adv-x="803" 
d="M401 704q150 0 253 -102.5t103 -252.5t-103 -252t-253 -102q-149 0 -252 102t-103 252t103 252.5t252 102.5zM401 591q-99 0 -167.5 -69t-70.5 -169q3 -53 36 -75t72 -22q29 0 50.5 8.5t35.5 25.5t22 31.5t17 38.5q36 92 119 90q50 -1 84 -29t41 -76v4q0 102 -69 172
t-170 70z" />
    <glyph glyph-name="smileface" unicode="&#x263a;" horiz-adv-x="803" 
d="M401 -5q-149 0 -252 102t-103 252t103 252.5t252 102.5q150 0 253 -102.5t103 -252.5t-103 -252t-253 -102zM401 108q101 0 170 70t69 171q0 102 -69 172t-170 70q-100 0 -169 -70.5t-69 -171.5t69 -171t169 -70zM321 365q-32 0 -52.5 21t-20.5 53t21 53t52 21
q30 0 51 -21.5t21 -52.5q0 -32 -20.5 -53t-51.5 -21zM493 365q-32 0 -52.5 21t-20.5 53q0 29 21.5 51.5t51.5 22.5t51.5 -22.5t21.5 -51.5q0 -32 -21 -53t-52 -21zM494 334h103q0 -76 -55.5 -128.5t-135.5 -52.5t-134.5 52.5t-54.5 128.5h103q0 -35 25 -59.5t61 -24.5
q37 0 62.5 24.5t25.5 59.5z" />
    <glyph glyph-name="uni263F" unicode="&#x263f;" horiz-adv-x="800" 
d="M459 463l5 -94q81 -20 132.5 -85t51.5 -150q0 -103 -72 -173.5t-176 -70.5t-175.5 70.5t-71.5 173.5q0 85 51.5 150t131.5 85l4 94l-114 -43l-40 124l117 32l-76 95l105 77l68 -102l67 102l105 -77l-76 -95l117 -32l-40 -124zM400 24q45 0 76.5 32t31.5 78t-31.5 78
t-76.5 32q-46 0 -77 -32t-30 -78q0 -46 31 -78t76 -32z" />
    <glyph glyph-name="female" unicode="&#x2640;" horiz-adv-x="1000" 
d="M987 48q16 -12 18 -28t-13 -27q-35 -23 -122 -29t-162 13q-95 -60 -208 -60t-208 60q-75 -19 -162 -13t-122 29q-15 11 -13 27t18 28q94 70 94 262q0 162 115.5 277.5t277.5 115.5t277.5 -115.5t115.5 -277.5q0 -192 94 -262zM500 635q-110 0 -197.5 -69t-115.5 -174
q82 6 182 35.5t168 85.5q38 30 65 0q49 -56 107.5 -88t105.5 -39q-27 107 -115.5 178t-199.5 71zM176 310q0 -132 96 -228.5t228 -96.5t228 96.5t96 228.5v10q-55 3 -124.5 32.5t-132.5 96.5q-88 -67 -196 -94t-195 -28v-17zM335 307q16 0 26 -14.5t10 -37.5t-10 -37.5
t-26 -14.5q-17 0 -27 14.5t-10 37.5t10 37.5t27 14.5zM666 307q16 0 26 -14.5t10 -37.5t-10 -37.5t-26 -14.5q-17 0 -27 14.5t-10 37.5t10 37.5t27 14.5zM572 148q26 22 46 2q23 -25 -6 -50q-48 -42 -112 -42t-112 42q-29 25 -6 50q20 20 46 -2q28 -25 72 -25t72 25zM90 38
q48 -17 131 -3q-48 47 -77 109q-16 -74 -54 -106zM779 35q83 -14 131 3q-38 32 -54 106q-29 -62 -77 -109z" />
    <glyph glyph-name="male" unicode="&#x2642;" horiz-adv-x="1000" 
d="M500 703q162 0 277.5 -115.5t115.5 -277.5t-115.5 -277.5t-277.5 -115.5t-277.5 115.5t-115.5 277.5t115.5 277.5t277.5 115.5zM500 636q-111 0 -198.5 -69.5t-115.5 -174.5q81 6 182 35.5t169 85.5q38 30 65 0q49 -55 108 -87.5t106 -39.5q-27 107 -115.5 178.5
t-200.5 71.5zM500 -16q133 0 229 96.5t96 229.5v10q-55 3 -124.5 32.5t-133.5 96.5q-89 -67 -197 -94t-195 -28v-17q0 -133 96 -229.5t229 -96.5zM335 307q16 0 26 -14.5t10 -37.5t-10 -37.5t-26 -14.5q-17 0 -27 14.5t-10 37.5t10 37.5t27 14.5zM666 307q16 0 26 -14.5
t10 -37.5t-10 -37.5t-26 -14.5q-17 0 -27 14.5t-10 37.5t10 37.5t27 14.5zM572 148q26 22 46 2q23 -25 -6 -50q-48 -42 -112 -42t-112 42q-29 25 -6 50q20 20 46 -2q28 -25 72 -25t72 25z" />
    <glyph glyph-name="uni2661" unicode="&#x2661;" horiz-adv-x="793" 
d="M565 642q82 0 136.5 -52.5t54.5 -131.5q0 -90 -83 -179l-277 -298l-276 298q-83 89 -83 179q0 80 53.5 132t135.5 52q54 0 92 -21.5t78 -68.5q43 48 79 69t90 21zM562 532q-24 0 -41.5 -11.5t-43.5 -37.5l-81 -83l-80 83q-26 27 -44 38t-42 11q-35 0 -56 -22.5t-21 -56.5
q0 -47 38 -86l205 -218l205 218q39 40 39 86q0 35 -20.5 57t-57.5 22z" />
    <glyph glyph-name="heart" unicode="&#x2665;" horiz-adv-x="786" 
d="M559 648q80 0 133.5 -54t53.5 -133q0 -84 -84 -177l-269 -295l-270 295q-83 90 -83 177q0 79 52 133t131 54q54 0 89 -20.5t81 -65.5q30 30 49 45.5t50 28t67 12.5z" />
    <glyph glyph-name="diamond" unicode="&#x2666;" horiz-adv-x="673" 
d="M323 781h26l299 -431l-299 -431h-26l-298 431zM181 433l121 31v141zM370 605v-141l121 -31zM302 271v124l-179 -45zM549 350l-179 45v-124zM198 242l138 -196l137 196l-137 -62z" />
    <glyph glyph-name="uni2667" unicode="&#x2667;" horiz-adv-x="1373" 
d="M916 -50h-458q-25 0 -43.5 19t-18.5 45v672q0 26 18.5 45t43.5 19h458q25 0 43.5 -19t18.5 -45v-672q0 -26 -18.5 -45t-43.5 -19zM347 21l-127 -24q-19 -4 -33.5 7t-14.5 29v629q0 18 15.5 26.5t32.5 -2.5l127 -88v-577zM1153 -3l-125 24v577l125 87q17 11 32.5 3
t15.5 -26v-629q0 -18 -14.5 -29t-33.5 -7zM127 73h-60q-13 0 -23.5 10.5t-10.5 23.5v391q0 13 10.5 23.5t23.5 10.5h60v-459zM1306 73h-60v459h60q13 0 23.5 -10.5t10.5 -23.5v-391q0 -13 -10.5 -23.5t-23.5 -10.5z" />
    <glyph glyph-name="uni267F" unicode="&#x267f;" horiz-adv-x="871" 
d="M436 593q-47 0 -80 33.5t-33 81.5q0 47 33 80t80 33t80 -33t33 -80q0 -48 -33 -81.5t-80 -33.5zM117 540h637q31 0 52 -20t21 -51t-21 -52t-52 -21h-179v-171l77 -280q8 -32 -6.5 -57t-45.5 -32q-30 -7 -54.5 7.5t-32.5 45.5l-77 286l-77 -286q-8 -31 -32 -45.5t-55 -7.5
q-32 7 -47.5 32t-6.5 57l78 277v174h-179q-32 0 -52.5 20.5t-20.5 52.5q0 31 20.5 51t52.5 20z" />
    <glyph glyph-name="uni26A5" unicode="&#x26a5;" horiz-adv-x="1000" 
d="M968 389q12 -7 13.5 -18t-8.5 -16q-20 -11 -59 -11t-74 10q-52 -36 -117 -36q-67 0 -117 36q-36 -10 -74.5 -10t-58.5 11q-10 5 -10 15.5t11 16.5q21 12 32.5 54t11.5 84q0 88 59 147.5t146 59.5t146 -59.5t59 -147.5q0 -41 11 -83.5t29 -52.5zM405 565h-330
q-16 0 -16 16v110q0 17 16 17h330q17 0 17 -17v-110q0 -16 -17 -16zM723 699q-61 0 -106.5 -37t-58.5 -95q115 8 181 72q17 15 30 -6q23 -32 57.5 -51.5t64.5 -24.5q-11 62 -57.5 102t-110.5 40zM388 676h-295v-79h295v79zM553 525q0 -73 49 -123t121 -50t120.5 48.5
t50.5 121.5q-85 10 -144 79q-75 -65 -197 -71v-5zM633 523q16 0 16 -29q0 -28 -16 -28q-18 0 -18 28q0 29 18 29zM815 523q16 0 16 -29q0 -28 -16 -28q-18 0 -18 28q0 29 18 29zM405 373h-330q-16 0 -16 17v109q0 17 16 17h330q17 0 17 -17v-109q0 -17 -17 -17zM388 484
h-295v-79h295v79zM509 378q31 -5 68 2q-25 28 -38 62q-9 -45 -30 -64zM869 380q36 -9 67 -2q-21 14 -29 63q-13 -33 -38 -61zM769 429q9 10 21 -2q10 -11 -3 -24q-25 -22 -64 -22q-41 0 -63 22q-15 13 -1 26q9 11 19 -1q18 -15 46 -15q25 0 45 16zM248 316q86 0 147 -61.5
t61 -148.5q0 -84 -61 -144t-147 -60q-84 0 -143.5 60.5t-59.5 146.5t59.5 146.5t143.5 60.5zM251 283q-60 0 -107 -37t-61 -95q118 11 180 72q17 14 31 -6q24 -32 60.5 -52t65.5 -24q-11 61 -59 101.5t-110 40.5zM887 217l42 -125q5 -14 -9 -17l-77 -18l52 -57
q11 -11 -2 -21l-112 -75q-11 -8 -17 3l-42 67l-41 -67q-6 -11 -18 -3l-112 75q-13 10 -2 21l52 57l-78 18q-12 4 -8 17l42 124q4 11 16 7l74 -30l-5 76q-2 13 12 13h137q14 0 12 -13l-6 -76l73 31q14 5 17 -7zM857 -7l-70 82l107 27l-30 83l-101 -37l5 104h-92l6 -104
l-102 37l-29 -83l105 -27l-68 -82l75 -52l59 89l60 -89zM251 -65q70 0 120 50t52 121q-33 3 -74 22t-74 57q-75 -65 -197 -71v-5q0 -71 51 -122.5t122 -51.5zM156 107q17 0 17 -29q0 -28 -17 -28t-17 28q0 29 17 29zM340 107q17 0 17 -29q0 -28 -17 -28t-17 28q0 29 17 29z
M291 16q14 10 23 1q13 -13 -3 -26q-22 -22 -63 -22q-40 0 -64 22q-15 13 -3 26q10 10 23 -1q15 -15 44 -15q28 0 43 15z" />
    <glyph glyph-name="uni272A" unicode="&#x272a;" horiz-adv-x="803" 
d="M401 -5q150 0 253 102t103 252t-103 252.5t-253 102.5q-149 0 -252 -102.5t-103 -252.5t103 -252t252 -102zM404 208l-185 -115l51 212l-165 141l216 16l84 202l83 -202l217 -16l-167 -141l53 -212z" />
    <glyph glyph-name="uni2731" unicode="&#x2731;" horiz-adv-x="742" 
d="M631 599l86 -148l-175 -101l175 -101l-86 -148l-174 100v-201h-172v201l-174 -100l-86 148l175 101l-175 101l86 148l174 -100v201h172v-201z" />
    <glyph glyph-name="uni2732" unicode="&#x2732;" horiz-adv-x="741" 
d="M426 444h-110v256h110v-256zM316 444l-56 -96l-223 130l56 96zM481 349l-55 95l223 130l55 -95zM704 221l-56 -96l-222 129l55 95zM94 126l-55 95l222 127l55 -94zM426 1h-110v253h110v-253z" />
    <glyph glyph-name="uni275B" unicode="&#x275b;" horiz-adv-x="457" 
d="M194 520l7 -2q36 21 75.5 21.5t70.5 -16t51 -52t20 -82.5q0 -77 -53.5 -127.5t-135.5 -50.5q-84 0 -138.5 56.5t-54.5 144.5q0 121 90 209t242 88v-79q-59 -1 -108 -31t-66 -79z" />
    <glyph glyph-name="uni275C" unicode="&#x275c;" horiz-adv-x="457" 
d="M228 709q84 0 138.5 -56.5t54.5 -144.5q0 -121 -90 -209t-242 -88v79q59 1 108 31t66 79l-7 2q-36 -21 -75.5 -21.5t-70.5 16t-51 52t-20 82.5q0 77 53.5 127.5t135.5 50.5z" />
    <glyph glyph-name="uni275D" unicode="&#x275d;" horiz-adv-x="867" 
d="M194 520l7 -2q36 21 75.5 21.5t70.5 -16t51 -52t20 -82.5q0 -77 -53.5 -127.5t-135.5 -50.5q-84 0 -138.5 56.5t-54.5 144.5q0 121 90 209t242 88v-79q-59 -1 -108 -31t-66 -79zM604 520l7 -2q36 21 75.5 21.5t70.5 -16t51 -52t20 -82.5q0 -77 -53.5 -127.5t-135.5 -50.5
q-84 0 -138.5 56.5t-54.5 144.5q0 121 90 209t242 88v-79q-59 -1 -108 -31t-66 -79z" />
    <glyph glyph-name="uni275E" unicode="&#x275e;" horiz-adv-x="867" 
d="M228 709q84 0 138.5 -56.5t54.5 -144.5q0 -121 -90 -209t-242 -88v79q59 1 108 31t66 79l-7 2q-36 -21 -75.5 -21.5t-70.5 16t-51 52t-20 82.5q0 77 53.5 127.5t135.5 50.5zM638 709q84 0 138.5 -56.5t54.5 -144.5q0 -121 -90 -209t-242 -88v79q59 1 108 31t66 79l-7 2
q-36 -21 -75.5 -21.5t-70.5 16t-51 52t-20 82.5q0 77 53.5 127.5t135.5 50.5z" />
    <glyph glyph-name="uni2761" unicode="&#x2761;" horiz-adv-x="780" 
d="M356 700h346v-551q0 -83 -14 -144.5t-48 -111.5t-96.5 -75.5t-152.5 -25.5q-74 0 -135 21t-100 55t-66 78t-38.5 88t-11.5 88l127 33q12 -160 104 -160q85 0 85 154v68q-286 3 -286 242q0 241 286 241zM411 -80q76 0 112.5 61.5t36.5 167.5v420h-62v-420q0 -166 -87 -229
z" />
    <glyph glyph-name="uni2776" unicode="&#x2776;" horiz-adv-x="803" 
d="M401 -5q150 0 253 102t103 252t-103 252.5t-253 102.5q-149 0 -252 -102.5t-103 -252.5t103 -252t252 -102zM485 574v-333h89v-106h-330v106h121v159l-66 -58l-71 72l174 160h83z" />
    <glyph glyph-name="uni2777" unicode="&#x2777;" horiz-adv-x="803" 
d="M401 -5q150 0 253 102t103 252t-103 252.5t-253 102.5q-149 0 -252 -102.5t-103 -252.5t103 -252t252 -102zM330 401l-121 22q12 83 63 122t128 39q81 0 129.5 -41t48.5 -103q0 -77 -82 -162l-35 -37h128v-106h-371v24l174 176q35 36 47.5 56.5t12.5 40.5q0 17 -13 29
t-36 12q-29 0 -49 -19t-24 -53z" />
    <glyph glyph-name="uni2778" unicode="&#x2778;" horiz-adv-x="803" 
d="M401 -5q150 0 253 102t103 252t-103 252.5t-253 102.5q-149 0 -252 -102.5t-103 -252.5t103 -252t252 -102zM509 366q34 -10 54.5 -39t20.5 -71q0 -61 -48 -97.5t-143 -36.5q-64 0 -112 25t-68 56l84 66q36 -39 105 -39q29 0 46.5 12t17.5 34q0 41 -86 41h-50v89h25
q90 0 90 35q0 31 -54 31q-61 0 -98 -47l-72 65q57 89 169 89q86 0 130 -33.5t44 -87.5q0 -63 -55 -92z" />
    <glyph glyph-name="uni2779" unicode="&#x2779;" horiz-adv-x="803" 
d="M401 -5q150 0 253 102t103 252t-103 252.5t-253 102.5q-149 0 -252 -102.5t-103 -252.5t103 -252t252 -102zM535 299h48v-103h-48v-62h-119v62h-221v98l231 279h109v-274zM419 299v115l-96 -115h96z" />
    <glyph glyph-name="uni277A" unicode="&#x277a;" horiz-adv-x="803" 
d="M401 -5q150 0 253 102t103 252t-103 252.5t-253 102.5q-149 0 -252 -102.5t-103 -252.5t103 -252t252 -102zM400 424q86 0 126.5 -38.5t40.5 -104.5q0 -73 -49.5 -117t-138.5 -44q-92 0 -146 27l36 102q42 -22 97 -22q37 0 59.5 14t22.5 40q0 54 -98 54q-44 0 -102 -11
l-2 2l18 242h275v-106h-169l-4 -39q12 1 34 1z" />
    <glyph glyph-name="uni277B" unicode="&#x277b;" horiz-adv-x="803" 
d="M401 -5q150 0 253 102t103 252t-103 252.5t-253 102.5q-149 0 -252 -102.5t-103 -252.5t103 -252t252 -102zM442 430q59 0 101 -38.5t42 -105.5q0 -73 -50.5 -118.5t-133.5 -45.5q-85 0 -135.5 45.5t-50.5 118.5q0 75 51 138l118 146h153v-3l-119 -138q8 1 24 1zM401 228
q26 0 44 17t18 42t-18 42t-45 17t-45 -17t-18 -42q0 -26 18 -42.5t46 -16.5z" />
    <glyph glyph-name="uni277C" unicode="&#x277c;" horiz-adv-x="803" 
d="M401 -5q150 0 253 102t103 252t-103 252.5t-253 102.5q-149 0 -252 -102.5t-103 -252.5t103 -252t252 -102zM247 457v106h334v-17l-165 -422h-131l132 333h-170z" />
    <glyph glyph-name="uni277D" unicode="&#x277d;" horiz-adv-x="803" 
d="M401 -5q150 0 253 102t103 252t-103 252.5t-253 102.5q-149 0 -252 -102.5t-103 -252.5t103 -252t252 -102zM513 374q73 -39 73 -113q0 -60 -51 -98t-133 -38t-134 38t-52 98q0 74 74 113q-48 35 -48 87t45 85.5t115 33.5t114 -33t44 -86t-47 -87zM403 486
q-19 0 -33.5 -11.5t-14.5 -27.5q0 -17 14.5 -28.5t33.5 -11.5q20 0 32.5 11.5t12.5 28.5t-12.5 28t-32.5 11zM403 223q28 0 45.5 15t17.5 38t-17.5 38t-45.5 15q-29 0 -47.5 -15t-18.5 -38t18.5 -38t47.5 -15z" />
    <glyph glyph-name="uni277E" unicode="&#x277e;" horiz-adv-x="803" 
d="M402 704q-150 0 -253 -102t-103 -252t103 -252.5t253 -102.5q149 0 252 102.5t103 252.5t-103 252t-252 102zM361 269q-59 0 -101 38.5t-42 105.5q0 73 50.5 118.5t133.5 45.5q85 0 135.5 -45.5t50.5 -118.5q0 -75 -51 -138l-118 -146h-153v3l119 138q-8 -1 -24 -1z
M402 471q-26 0 -44 -17t-18 -42t18 -42t45 -17t45 17t18 42q0 26 -18 42.5t-46 16.5z" />
    <glyph glyph-name="uni277F" unicode="&#x277f;" horiz-adv-x="803" 
d="M401 -5q150 0 253 102t103 252t-103 252.5t-253 102.5q-149 0 -252 -102.5t-103 -252.5t103 -252t252 -102zM519 133q-76 0 -119 55t-43 162t43 161.5t119 54.5t119 -54.5t42 -161.5t-43.5 -162t-117.5 -55zM328 561v-424h-115v261l-33 -36l-67 66l134 133h81zM519 238
q23 0 32.5 26.5t9.5 85.5t-9.5 85t-32.5 26t-33 -26t-9 -85q1 -60 10 -86t32 -26z" />
    <glyph glyph-name="uni2780" unicode="&#x2780;" horiz-adv-x="803" 
d="M401 -5q-149 0 -252 102t-103 252t103 252.5t252 102.5q150 0 253 -102.5t103 -252.5t-103 -252t-253 -102zM401 79q112 0 190 78.5t78 191.5q0 114 -77.5 192.5t-190.5 78.5q-112 0 -189.5 -78.5t-77.5 -192.5q0 -113 77.5 -191.5t189.5 -78.5zM469 543v-277h74v-88
h-275v88h101v132l-55 -48l-59 60l145 133h69z" />
    <glyph glyph-name="uni2781" unicode="&#x2781;" horiz-adv-x="803" 
d="M401 -5q-149 0 -252 102t-103 252t103 252.5t252 102.5q150 0 253 -102.5t103 -252.5t-103 -252t-253 -102zM401 79q112 0 190 78.5t78 191.5q0 114 -77.5 192.5t-190.5 78.5q-112 0 -189.5 -78.5t-77.5 -192.5q0 -113 77.5 -191.5t189.5 -78.5zM341 394l-101 19
q10 68 53 100.5t107 32.5q67 0 107.5 -34.5t40.5 -85.5q0 -63 -68 -135l-30 -30h108v-89h-310v21l145 146q50 50 50 81q0 14 -11 24t-30 10q-24 0 -40.5 -15.5t-20.5 -44.5z" />
    <glyph glyph-name="uni2782" unicode="&#x2782;" horiz-adv-x="803" 
d="M401 -5q-149 0 -252 102t-103 252t103 252.5t252 102.5q150 0 253 -102.5t103 -252.5t-103 -252t-253 -102zM401 79q112 0 190 78.5t78 191.5q0 114 -77.5 192.5t-190.5 78.5q-112 0 -189.5 -78.5t-77.5 -192.5q0 -113 77.5 -191.5t189.5 -78.5zM491 363q28 -8 45 -32
t17 -59q0 -50 -40 -81t-119 -31q-54 0 -93.5 21t-56.5 47l70 55q30 -33 87 -33q24 0 39 10t15 28q0 35 -72 35h-42v74h21q75 0 75 29q0 26 -45 26q-50 0 -81 -39l-60 54q47 74 140 74q72 0 108.5 -27.5t36.5 -73.5q0 -51 -45 -77z" />
    <glyph glyph-name="uni2783" unicode="&#x2783;" horiz-adv-x="803" 
d="M401 -5q-149 0 -252 102t-103 252t103 252.5t252 102.5q150 0 253 -102.5t103 -252.5t-103 -252t-253 -102zM401 79q112 0 190 78.5t78 191.5q0 114 -77.5 192.5t-190.5 78.5q-112 0 -189.5 -78.5t-77.5 -192.5q0 -113 77.5 -191.5t189.5 -78.5zM511 308h40v-86h-40v-51
h-99v51h-185v82l193 232h91v-228zM414 308v96l-80 -96h80z" />
    <glyph glyph-name="uni2784" unicode="&#x2784;" horiz-adv-x="803" 
d="M401 -5q-149 0 -252 102t-103 252t103 252.5t252 102.5q150 0 253 -102.5t103 -252.5t-103 -252t-253 -102zM401 79q112 0 190 78.5t78 191.5q0 114 -77.5 192.5t-190.5 78.5q-112 0 -189.5 -78.5t-77.5 -192.5q0 -113 77.5 -191.5t189.5 -78.5zM403 411q71 0 105 -32
t34 -87q0 -61 -41 -98t-115 -37q-76 0 -122 23l30 85q33 -18 81 -18q68 0 68 45t-82 45q-33 0 -85 -10l-1 2l15 202h229v-89h-141l-3 -32q10 1 28 1z" />
    <glyph glyph-name="uni2785" unicode="&#x2785;" horiz-adv-x="803" 
d="M401 -5q-149 0 -252 102t-103 252t103 252.5t252 102.5q150 0 253 -102.5t103 -252.5t-103 -252t-253 -102zM401 79q112 0 190 78.5t78 191.5q0 114 -77.5 192.5t-190.5 78.5q-112 0 -189.5 -78.5t-77.5 -192.5q0 -113 77.5 -191.5t189.5 -78.5zM430 418q49 0 84 -32
t35 -88q0 -61 -42 -99t-111 -38q-70 0 -112.5 38t-42.5 99q0 62 42 115l99 122h127v-3l-99 -115q7 1 20 1zM396 250q22 0 37 14t15 35t-15 35t-38 14q-22 0 -37 -14t-15 -35t15 -35t38 -14z" />
    <glyph glyph-name="uni2786" unicode="&#x2786;" horiz-adv-x="803" 
d="M401 -5q-149 0 -252 102t-103 252t103 252.5t252 102.5q150 0 253 -102.5t103 -252.5t-103 -252t-253 -102zM401 79q112 0 190 78.5t78 191.5q0 114 -77.5 192.5t-190.5 78.5q-112 0 -189.5 -78.5t-77.5 -192.5q0 -113 77.5 -191.5t189.5 -78.5zM275 438v88h278v-14
l-137 -351h-109l110 277h-142z" />
    <glyph glyph-name="uni2787" unicode="&#x2787;" horiz-adv-x="803" 
d="M401 -5q-149 0 -252 102t-103 252t103 252.5t252 102.5q150 0 253 -102.5t103 -252.5t-103 -252t-253 -102zM401 79q112 0 190 78.5t78 191.5q0 114 -77.5 192.5t-190.5 78.5q-112 0 -189.5 -78.5t-77.5 -192.5q0 -113 77.5 -191.5t189.5 -78.5zM494 370q61 -32 61 -94
q0 -50 -42.5 -81.5t-110.5 -31.5t-111.5 31.5t-43.5 81.5q0 61 62 94q-40 29 -40 73t37.5 71.5t95.5 27.5t95 -28t37 -71q0 -44 -40 -73zM403 464q-16 0 -28 -9.5t-12 -23.5t12 -23.5t28 -9.5t26.5 9.5t10.5 23.5t-10.5 23.5t-26.5 9.5zM403 245q23 0 37.5 12t14.5 32
q0 19 -14.5 31.5t-37.5 12.5q-24 0 -39.5 -12.5t-15.5 -31.5q0 -20 15 -32t40 -12z" />
    <glyph glyph-name="uni2788" unicode="&#x2788;" horiz-adv-x="803" 
d="M402 704q149 0 252 -102t103 -252t-103 -252.5t-252 -102.5q-150 0 -253 102.5t-103 252.5t103 252t253 102zM402 620q-112 0 -190 -78.5t-78 -191.5q0 -114 77.5 -192.5t190.5 -78.5q112 0 189.5 78.5t77.5 192.5q0 113 -77.5 191.5t-189.5 78.5zM373 281q-49 0 -84 32
t-35 88q0 61 42 99t111 38q70 0 112.5 -38t42.5 -99q0 -63 -42 -115l-99 -122h-127v3l99 115q-7 -1 -20 -1zM407 449q-22 0 -37 -14t-15 -35t15 -35t38 -14q22 0 37 14t15 35t-15 35t-38 14z" />
    <glyph glyph-name="uni2789" unicode="&#x2789;" horiz-adv-x="803" 
d="M401 -5q-149 0 -252 102t-103 252t103 252.5t252 102.5q150 0 253 -102.5t103 -252.5t-103 -252t-253 -102zM401 79q112 0 190 78.5t78 191.5q0 114 -77.5 192.5t-190.5 78.5q-112 0 -189.5 -78.5t-77.5 -192.5q0 -113 77.5 -191.5t189.5 -78.5zM499 169
q-64 0 -99.5 45.5t-35.5 135.5q0 89 35.5 134.5t99.5 45.5q63 0 99 -45.5t35 -134.5t-36.5 -135t-97.5 -46zM339 526v-354h-95v218l-28 -30l-56 55l112 111h67zM499 257q35 0 35 93q0 92 -35 92q-19 0 -27.5 -21.5t-7.5 -70.5q0 -50 8 -71.5t27 -21.5z" />
    <glyph glyph-name="uni2B1F" unicode="&#x2b1f;" horiz-adv-x="760" 
d="M594 0h-427l-132 406l346 250l344 -250z" />
    <glyph glyph-name="uni2B20" unicode="&#x2b20;" horiz-adv-x="760" 
d="M594 0h-427l-132 406l346 250l344 -250zM167 363l82 -251h263l82 251l-213 155z" />
    <glyph glyph-name="uni2B21" unicode="&#x2b21;" horiz-adv-x="756" 
d="M692 113l-314 -182l-314 182v364l314 181l314 -181v-364zM179 179l199 -115l199 115v230l-199 116l-199 -116v-230z" />
    <glyph glyph-name="uni2B22" unicode="&#x2b22;" horiz-adv-x="756" 
d="M692 113l-314 -182l-314 182v364l314 181l314 -181v-364z" />
    <glyph glyph-name="uniFB1D" unicode="&#xfb1d;" horiz-adv-x="292" 
d="M61 235v365h170v-339zM150 19q-24 0 -41 17t-17 41t17 41t41 17t41 -17t17 -41t-17 -41t-41 -17z" />
    <glyph glyph-name="uniFB1F" unicode="&#xfb1f;" horiz-adv-x="591" 
d="M61 250v350h170v-325zM348 250v350h170v-325zM65 31v123q233 -57 465 0v-123q-101 -46 -232.5 -46t-232.5 46z" />
    <glyph glyph-name="uniFB20" unicode="&#xfb20;" horiz-adv-x="697" 
d="M466 315v285h170v-285q0 -170 -73 -242.5t-245 -72.5h-269v145h127l-124 455h175l123 -452q70 7 93 42.5t23 124.5z" />
    <glyph glyph-name="uniFB21" unicode="&#xfb21;" horiz-adv-x="1130" 
d="M808 214l276 -199v-15h-234l-404 292q-120 -27 -179.5 -97.5t-55.5 -194.5h-170q-4 156 65 248t210 138l-276 199v15h234l404 -292q120 27 179.5 97.5t55.5 194.5h170q4 -156 -65 -248t-210 -138z" />
    <glyph glyph-name="uniFB22" unicode="&#xfb22;" horiz-adv-x="1125" 
d="M36 455v145h1047v-145q-94 0 -132.5 -39t-38.5 -128v-288h-170v282q0 119 70 173h-776z" />
    <glyph glyph-name="uniFB23" unicode="&#xfb23;" horiz-adv-x="1153" 
d="M64 455v145h705q168 0 245.5 -77.5t77.5 -246.5v-276h-170v276q0 96 -35.5 137.5t-117.5 41.5h-705zM69 0v311l170 22v-333h-170z" />
    <glyph glyph-name="uniFB24" unicode="&#xfb24;" horiz-adv-x="1037" 
d="M487 610q272 0 393.5 -80t121.5 -230t-121.5 -230t-393.5 -80q-246 0 -457 43l31 136q200 -36 414 -36q131 0 212 21t113 57t32 89t-32 89t-113 57t-212 21q-221 0 -413 -37l-32 137q211 43 457 43z" />
    <glyph glyph-name="uniFB25" unicode="&#xfb25;" horiz-adv-x="1068" 
d="M208 700v-100h839v-15l-328 -585h-189v6l252 449h-744v245h170z" />
    <glyph glyph-name="uniFB26" unicode="&#xfb26;" horiz-adv-x="1297" 
d="M67 600h872q156 0 226.5 -62t70.5 -207v-331h-1169v600zM237 455v-310h829v172q0 75 -31 106.5t-98 31.5h-700z" />
    <glyph glyph-name="uniFB27" unicode="&#xfb27;" horiz-adv-x="1051" 
d="M990 242v-242h-164v225q0 132 -68.5 185.5t-235.5 53.5q-229 0 -482 -43l-28 137q256 50 489 50q186 0 291.5 -36.5t151.5 -114.5t46 -215z" />
    <glyph glyph-name="uniFB28" unicode="&#xfb28;" horiz-adv-x="1223" 
d="M74 600h770q171 0 244.5 -68t73.5 -230v-302h-170v302q0 80 -34.5 116.5t-115.5 36.5h-480v-300q0 -82 -46.5 -121.5t-127.5 -39.5q-108 0 -168 20l22 134q40 -10 90 -10q62 0 62 68v249h-120v145z" />
    <glyph glyph-name="uniFB29" unicode="&#xfb29;" horiz-adv-x="578" 
d="M363 533v-163h156v-141h-460v141h156v163h148z" />
    <glyph glyph-name="uniFB2A" unicode="&#xfb2a;" horiz-adv-x="826" 
d="M699 651q-24 0 -41 17t-17 41t17 41t41 17t41 -17t17 -41t-17 -41t-41 -17zM614 342v258h170v-253q0 -174 -96 -267t-275 -93t-275 93t-96 267v253h170v-258q0 -102 52 -156t149 -54t149 54t52 156zM328 600h170v-330l-170 -34v364z" />
    <glyph glyph-name="uniFB2B" unicode="&#xfb2b;" horiz-adv-x="826" 
d="M127 651q-24 0 -41 17t-17 41t17 41t41 17t41 -17t17 -41t-17 -41t-41 -17zM614 342v258h170v-253q0 -174 -96 -267t-275 -93t-275 93t-96 267v253h170v-258q0 -102 52 -156t149 -54t149 54t52 156zM328 600h170v-330l-170 -34v364z" />
    <glyph glyph-name="uniFB2C" unicode="&#xfb2c;" horiz-adv-x="826" 
d="M699 651q-24 0 -41 17t-17 41t17 41t41 17t41 -17t17 -41t-17 -41t-41 -17zM614 342v258h170v-253q0 -174 -96 -267t-275 -93t-275 93t-96 267v253h170v-258q0 -102 52 -156t149 -54t149 54t52 156zM328 600h170v-330l-170 -34v364zM380 194q0 21 14.5 36t35.5 15
t35.5 -15t14.5 -36q0 -20 -14.5 -35t-35.5 -15t-35.5 15t-14.5 35z" />
    <glyph glyph-name="uniFB2D" unicode="&#xfb2d;" horiz-adv-x="826" 
d="M127 651q-24 0 -41 17t-17 41t17 41t41 17t41 -17t17 -41t-17 -41t-41 -17zM614 342v258h170v-253q0 -174 -96 -267t-275 -93t-275 93t-96 267v253h170v-258q0 -102 52 -156t149 -54t149 54t52 156zM328 600h170v-330l-170 -34v364zM380 194q0 21 14.5 36t35.5 15
t35.5 -15t14.5 -36q0 -20 -14.5 -35t-35.5 -15t-35.5 15t-14.5 35z" />
    <glyph glyph-name="uniFB2E" unicode="&#xfb2e;" horiz-adv-x="710" 
d="M514 211l150 -204v-7h-188l-202 274q-70 -61 -63 -274h-170q-4 165 32.5 255.5t116.5 133.5l-150 204v7h188l202 -274q70 61 63 274h170q4 -165 -32.5 -255.5t-116.5 -133.5zM472 -149h-236v83h236v-83z" />
    <glyph glyph-name="uniFB2F" unicode="&#xfb2f;" horiz-adv-x="710" 
d="M514 211l150 -204v-7h-188l-202 274q-70 -61 -63 -274h-170q-4 165 32.5 255.5t116.5 133.5l-150 204v7h188l202 -274q70 61 63 274h170q4 -165 -32.5 -255.5t-116.5 -133.5zM316 -146h-91v76h259v-76h-91l3 -75v-62h-83v62z" />
    <glyph glyph-name="uniFB30" unicode="&#xfb30;" horiz-adv-x="710" 
d="M514 211l150 -204v-7h-188l-202 274q-70 -61 -63 -274h-170q-4 165 32.5 255.5t116.5 133.5l-150 204v7h188l202 -274q70 61 63 274h170q4 -165 -32.5 -255.5t-116.5 -133.5zM404 454q-23 0 -39.5 16.5t-16.5 39.5t16.5 39.5t39.5 16.5t39.5 -16.5t16.5 -39.5
t-16.5 -39.5t-39.5 -16.5z" />
    <glyph glyph-name="uniFB31" unicode="&#xfb31;" horiz-adv-x="648" 
d="M551 310v-165h68v-145h-568v145h330v153q0 79 -36 124t-101 45q-70 0 -156 -48l-56 126q113 67 240 67q143 0 211 -75.5t68 -226.5zM284 301q0 -23 -16.5 -39.5t-39.5 -16.5t-39.5 16.5t-16.5 39.5t16.5 39.5t39.5 16.5t39.5 -16.5t16.5 -39.5z" />
    <glyph glyph-name="uniFB32" unicode="&#xfb32;" horiz-adv-x="426" 
d="M78 600h87q101 0 150 -44t49 -136v-420h-129l-26 96l-5 1q-43 -97 -139 -97h-45v160h45q135 0 135 126v98q0 38 -15.5 54.5t-52.5 16.5h-54v145zM88 254q-23 0 -39.5 16.5t-16.5 39.5t16.5 39.5t39.5 16.5t39.5 -16.5t16.5 -39.5t-16.5 -39.5t-39.5 -16.5z" />
    <glyph glyph-name="uniFB33" unicode="&#xfb33;" horiz-adv-x="635" 
d="M36 455v145h557v-145q-64 0 -92.5 -36.5t-28.5 -110.5v-308h-170v302q0 102 59 153h-325zM166 361q23 0 39.5 -16.5t16.5 -39.5t-16.5 -39.5t-39.5 -16.5t-39.5 16.5t-16.5 39.5t16.5 39.5t39.5 16.5z" />
    <glyph glyph-name="uniFB34" unicode="&#xfb34;" horiz-adv-x="693" 
d="M64 455v145h245q168 0 245.5 -77.5t77.5 -246.5v-276h-170v276q0 96 -35.5 137.5t-117.5 41.5h-245zM349 244q-23 0 -39.5 16.5t-16.5 39.5t16.5 39.5t39.5 16.5t39.5 -16.5t16.5 -39.5t-16.5 -39.5t-39.5 -16.5zM69 0v311l170 22v-333h-170z" />
    <glyph glyph-name="uniFB35" unicode="&#xfb35;" horiz-adv-x="304" 
d="M67 600h170v-600h-170v600zM-1 249q-22 0 -37.5 15t-15.5 37t15.5 37.5t37.5 15.5t37.5 -15.5t15.5 -37.5t-15.5 -37t-37.5 -15z" />
    <glyph glyph-name="uniFB36" unicode="&#xfb36;" horiz-adv-x="440" 
d="M410 600v-145q-127 0 -144.5 -99.5t78.5 -355.5h-181q-135 376 29 455h-150v145h368zM32 431q23 0 39.5 -16.5t16.5 -39.5t-16.5 -39.5t-39.5 -16.5t-39.5 16.5t-16.5 39.5t16.5 39.5t39.5 16.5z" />
    <glyph glyph-name="uniFB38" unicode="&#xfb38;" horiz-adv-x="705" 
d="M431 608q107 0 171 -71t64 -218q0 -157 -79.5 -243t-226.5 -86q-149 0 -233.5 86.5t-84.5 242.5v281h170v-281q0 -88 38.5 -136t109.5 -48q140 0 140 184q0 144 -90 144q-34 0 -79 -19l-42 127q67 37 142 37zM365 253q-23 0 -39.5 16.5t-16.5 39.5t16.5 39.5t39.5 16.5
t39.5 -16.5t16.5 -39.5t-16.5 -39.5t-39.5 -16.5z" />
    <glyph glyph-name="uniFB39" unicode="&#xfb39;" horiz-adv-x="292" 
d="M61 235v365h170v-339zM-6 324q-22 0 -37 15t-15 36q0 22 15 37t37 15q21 0 36 -15t15 -37q0 -21 -15 -36t-36 -15z" />
    <glyph glyph-name="uniFB3A" unicode="&#xfb3a;" horiz-adv-x="570" 
d="M36 455v145h177q164 0 230 -71t66 -246v-433h-170v433q0 94 -31 133t-107 39h-165zM167 244q-23 0 -39.5 16.5t-16.5 39.5t16.5 39.5t39.5 16.5t39.5 -16.5t16.5 -39.5t-16.5 -39.5t-39.5 -16.5z" />
    </font>
</defs>
</svg>
